img image001 image001 image001 image001 image001 image001 image001 image001 image001 image001 image001 image001 image001 image001 image001

Planets Sun Sun Sun
Статистика раздачи
Автор: Nickolas3434 | Размер: 7.48 ГБ | Добавлен: 03 дек 2017
Раздают: 3    Качают: 1
Скачать торрент
Скачать торрент
Описание торрента

СообщениеДобавлено: 03 дек 2017 

Информация о фильме
Название: Звезда
Оригинальное название: Étoile / Ballet
Год выхода: 1989
Жанр: фэнтези, мелодрама, триллер
Режиссер: Питер Дель Монте
В ролях: Дженнифер Коннелли, Гари МакКлири, Лоран Терзиефф, Олимпия Карлизи, Марио Мароцци, Дональд Ходсон, Чарльз Дёрнинг
Описание: Американская балерина приезжает в Венгрию, чтобы поступить в балетную школу. Но вскоре девушка понимает, что здесь все является не тем, чем кажется на первый взгляд.

Страна: Италия
Продолжительность: 01:41:14
Перевод: Профессиональный (двухголосый закадровый)
Субтитры: русские
Оригинальная аудиодорожка: итальянский
Файл
Качество: BDRip 720p
Видео: AVC / 1280x690 / 16:9 / 23.976 fps / 8500 kbps / [email protected]
Аудио 1: Rus / AC3 / 48.0 KHz / 2.0 / 192 kbps / DVO
Аудио 2: Eng / DTS-HD MA / 48.0 KHz / 2.0 / 1509 kbps / 24 bit (DTS Core 48.0 KHz / 2.0 / 1509 kbps / 24 bit)
Аудио 3: Ita / AC3 / 48.0 KHz / 2.0 / 384 kbps

Общее
Уникальный идентификатор : 241050206771352049926693621786470702565 (0xB55894C513E8F7D5A76754BDAF66DDE5)
Полное имя : Ballet.1989.BDRip.720p.mkv
Формат : Matroska
Версия формата : Version 4 / Version 2
Размер файла : 7,48 Гбайт
Продолжительность : 1 ч. 41 м.
Общий поток : 10,6 Мбит/сек
Название фильма : Ballet.1989.BDRip.720p-porvaliparus
Дата кодирования : UTC 2017-12-03 02:30:24
Программа кодирования : mkvmerge v18.0.0 ('Apricity') 64-bit
Библиотека кодирования : libebml v1.3.5 + libmatroska v1.4.8
Видео
Идентификатор : 1
Формат : AVC
Формат/Информация : Advanced Video Codec
Профиль формата : [email protected]
Настройки формата : CABAC / 9 Ref Frames
Параметр CABAC формата : Да
Параметр RefFrames формата : 9 кадров
Идентификатор кодека : V_MPEG4/ISO/AVC
Продолжительность : 1 ч. 41 м.
Битрейт : 8500 Кбит/сек
Ширина : 1280 пикселей
Высота : 690 пикселей
Соотношение сторон : 1,85:1
Режим частоты кадров : Постоянный
Частота кадров : 23,976 (24000/1001) кадра/сек
Цветовое пространство : YUV
Субдискретизация насыщенности : 4:2:0
Битовая глубина : 8 бит
Тип развёртки : Прогрессивная
Бит/(Пиксели*Кадры) : 0.401
Размер потока : 6,01 Гбайт (80%)
Заголовок : Ballet.1989.BDRip.720p
Библиотека кодирования : x264 core 152 r2851 ba24899
Настройки программы : cabac=1 / ref=9 / deblock=1:-3:-3 / analyse=0x3:0x133 / me=umh / subme=11 / psy=1 / psy_rd=1.00:0.10 / mixed_ref=1 / me_range=32 / chroma_me=1 / trellis=2 / 8x8dct=1 / cqm=0 / deadzone=21,11 / fast_pskip=0 / chroma_qp_offset=-3 / threads=12 / lookahead_threads=2 / sliced_threads=0 / nr=0 / decimate=1 / interlaced=0 / bluray_compat=0 / constrained_intra=0 / bframes=9 / b_pyramid=2 / b_adapt=2 / b_bias=0 / direct=3 / weightb=1 / open_gop=0 / weightp=2 / keyint=250 / keyint_min=23 / scenecut=40 / intra_refresh=0 / rc_lookahead=40 / rc=2pass / mbtree=0 / bitrate=8500 / ratetol=1.0 / qcomp=0.60 / qpmin=0 / qpmax=69 / qpstep=4 / cplxblur=20.0 / qblur=0.5 / vbv_maxrate=50000 / vbv_bufsize=62500 / nal_hrd=none / filler=0 / ip_ratio=1.40 / pb_ratio=1.30 / aq=1:0.80
Default : Да
Forced : Нет
Аудио #1
Идентификатор : 2
Формат : AC-3
Формат/Информация : Audio Coding 3
Идентификатор кодека : A_AC3
Продолжительность : 1 ч. 41 м.
Вид битрейта : Постоянный
Битрейт : 192 Кбит/сек
Каналы : 2 канала
Расположение каналов : Front: L R
Частота : 48,0 КГц
Частота кадров : 31,250 кадров/сек (1536 SPF)
Битовая глубина : 16 бит
Метод сжатия : С потерями
Размер потока : 139 Мбайт (2%)
Заголовок : DVO
Язык : Russian
Default : Да
Forced : Нет
Аудио #2
Идентификатор : 3
Формат : DTS
Формат/Информация : Digital Theater Systems
Идентификатор кодека : A_DTS
Продолжительность : 1 ч. 41 м.
Вид битрейта : Постоянный
Битрейт : 1509 Кбит/сек
Каналы : 2 канала
Расположение каналов : Front: L R
Частота : 48,0 КГц
Частота кадров : 93,750 кадра/сек (512 SPF)
Битовая глубина : 24 бит
Метод сжатия : С потерями
Размер потока : 1,07 Гбайт (14%)
Язык : English
Default : Нет
Forced : Нет
Аудио #3
Идентификатор : 4
Формат : AC-3
Формат/Информация : Audio Coding 3
Идентификатор кодека : A_AC3
Продолжительность : 1 ч. 41 м.
Вид битрейта : Постоянный
Битрейт : 384 Кбит/сек
Каналы : 2 канала
Расположение каналов : Front: L R
Частота : 48,0 КГц
Частота кадров : 31,250 кадров/сек (1536 SPF)
Битовая глубина : 16 бит
Метод сжатия : С потерями
Размер потока : 278 Мбайт (4%)
Язык : Italian
Default : Нет
Forced : Нет
Текст
Идентификатор : 5
Формат : UTF-8
Идентификатор кодека : S_TEXT/UTF8
Идентификатор кодека/Информация : UTF-8 Plain Text
Продолжительность : 1 ч. 37 м.
Битрейт : 38 бит/сек
ElementCount : 631
Размер потока : 27,3 Кбайт (0%)
Заголовок : doc_ravik
Язык : Russian
Default : Нет
Forced : Нет
Меню
00:00:00.000 : en:00:00:00.000
00:07:47.968 : en:00:07:47.968
00:14:04.427 : en:00:14:04.427
00:21:15.524 : en:00:21:15.524
00:25:39.955 : en:00:25:39.955
00:32:04.256 : en:00:32:04.256
00:39:36.749 : en:00:39:36.749
00:46:57.857 : en:00:46:57.857
00:55:33.747 : en:00:55:33.747
01:01:20.927 : en:01:01:20.927
01:11:32.371 : en:01:11:32.371
01:20:08.721 : en:01:20:08.721
01:26:58.714 : en:01:26:58.714
01:35:51.329 : en:01:35:51.329



   Похожие торренты   Торрент   Размер 
В этой теме нет новых непрочитанных сообщений. Звезда / Étoile (1989) BDRemux 1080р | P2

3 | 2

19.15 ГБ

В этой теме нет новых непрочитанных сообщений. Этуаль / Звезда / Étoile (1989) DVDRemux | P2

22 | 21

3.42 ГБ

В этой теме нет новых непрочитанных сообщений. Утренняя звезда / L'étoile du jour (2012) BDRip 720p | L

31 | 4

3.54 ГБ

В этой теме нет новых непрочитанных сообщений. Моя прекрасная звезда / Ma bonne étoile (2012) BDRip-AVC от HELLYWOOD | D

18 | 3

1.46 ГБ

В этой теме нет новых непрочитанных сообщений. Утренняя звезда / L'étoile du jour (2012) HDRip | L

14 | 0

1.37 ГБ

В этой теме нет новых непрочитанных сообщений. Моя прекрасная звезда / Ma bonne etoile (2012) HDRip | P

0 | 1

1.37 ГБ

В этой теме нет новых непрочитанных сообщений. Моя прекрасная звезда / Ma bonne etoile (2012) DVD9 | D

4 | 2

7.3 ГБ




Вы не можете начинать темы
Вы не можете отвечать на сообщения
Вы не можете редактировать свои сообщения
Вы не можете удалять свои сообщения
Вы не можете добавлять вложения

Перейти:  
Для Мосгорсуда, Роскомнадзора и рекламодателей: mosgorsud-torrent[собачка]yandex.ru
 Вход
ppkBB3cker v.2 © 2008-2014 @ PPK
[ Time : 0.049s | 19 Queries | GZIP : Off ]

cron