img image001 image001 image001 image001 image001 image001 image001 image001 image001 image001 image001 image001 image001 image001 image001

Planets Sun Sun Sun
Статистика раздачи
Автор: Nickolas3434 | Размер: 9.14 ГБ | Добавлен: 03 дек 2017
Раздают: 3    Качают: 2
Скачать торрент
Скачать торрент
Описание торрента

СообщениеДобавлено: 03 дек 2017 

Название: Жестокие игры 3
Оригинальное название: Cruel Intentions 3
Год выхода: 2004
Страна: США
Студия: Original Film, Newmarket Capital Group, Newmarket Productions
Продолжительность: 01:25:06
Жанр: драма
Режиссер: Скотт Зил
В ролях: Керр Смит, Кристина Анапау, Натан Уэзерингтон, Мелисса Ивонн Льюис, Натали Рэмси, Том Паркер, Майкл Пембертон, Тара Кэрролл, Чарли Уэбер, Алекс Доннелли, ...
Перевод:
- Профессиональный (многоголосый, закадровый) R5 от «Columbia/Sony»
- Профессиональный (многоголосый, закадровый) Видеосервис с VHS
- Субтитры
О фильме: Их любовным интригам нет конца… Их коварный план соблазнить и бросить двух доверчивых студенток не увенчался особым успехом, и тогда Джейсон и Патрик — два самых распущенных студента Колледжа Престридж — обратили свой взгляд на «приз», более интригующий и заманчивый — Касси Мертей, женщину холодную и расчетливую, которая приоткрывает им новый мир наслаждения и боли…

Кодек: x264
Качество: WEBRip 1080p
Видео: 1920x1080 , 13600 kbps, 23,976 fps
Аудио #1: AC-3, 6 ch, 640 kbps (Rus) - MVO R5 «Columbia/Sony»
Аудио #2: AC-3, 2 ch, 192 kbps (Rus) - MVO Видеосервис (VHS)
Аудио #3: AC-3, 6 ch, 640 kbps (Eng)
Субтитры: русские, английские
Общее
Уникальный идентификатор : 217609819712568762033989355292590786333 (0xA3B62075D0A48B9887E595EE07AAC71D)
Полное имя : Жестокие игры 3 (Cruel Intentions 3) 2004 WEBRip 1080p.mkv
Формат : Matroska
Версия формата : Version 2
Размер файла : 9,14 Гбайт
Продолжительность : 1 ч. 25 м.
Режим общего битрейта : Переменный
Общий поток : 15,4 Мбит/сек
Дата кодирования : UTC 2017-12-03 00:28:40
Программа кодирования : mkvmerge v4.0.0 ('The Stars were mine') сборка от Jun 6 2010 16:18:42
Библиотека кодирования : libebml v1.0.0 + libmatroska v1.0.0
Видео
Идентификатор : 1
Формат : AVC
Формат/Информация : Advanced Video Codec
Профиль формата : [email protected]
Параметр CABAC формата : Да
Параметр ReFrames формата : 4 кадра
Идентификатор кодека : V_MPEG4/ISO/AVC
Продолжительность : 1 ч. 25 м.
Вид битрейта : Переменный
Битрейт : 13,6 Мбит/сек
Максимальный битрейт : 15,0 Мбит/сек
Ширина : 1920 пикселей
Высота : 1080 пикселей
Соотношение сторон : 16:9
Режим частоты кадров : Постоянный
Частота кадров : 23,976 (24000/1001) кадра/сек
Цветовое пространство : YUV
Субдискретизация насыщенности : 4:2:0
Битовая глубина : 8 бит
Тип развёртки : Прогрессивная
Бит/(Пиксели*Кадры) : 0.273
Размер потока : 8,08 Гбайт (88%)
Библиотека кодирования : x264 core 148 r2623 d5b2374
Настройки программы : cabac=1 / ref=4 / deblock=1:-1:-1 / analyse=0x3:0x133 / me=umh / subme=9 / psy=1 / psy_rd=1.00:0.15 / mixed_ref=1 / me_range=24 / chroma_me=1 / trellis=2 / 8x8dct=1 / cqm=0 / deadzone=21,11 / fast_pskip=1 / chroma_qp_offset=-3 / threads=34 / lookahead_threads=5 / sliced_threads=0 / nr=150 / decimate=1 / interlaced=0 / bluray_compat=0 / constrained_intra=0 / bframes=8 / b_pyramid=2 / b_adapt=2 / b_bias=0 / direct=3 / weightb=1 / open_gop=0 / weightp=2 / keyint=120 / keyint_min=61 / scenecut=0 / intra_refresh=0 / rc_lookahead=120 / rc=crf / mbtree=1 / crf=18.0 / qcomp=0.60 / qpmin=0 / qpmax=69 / qpstep=4 / vbv_maxrate=15000 / vbv_bufsize=31250 / crf_max=0.0 / nal_hrd=vbr / filler=0 / ip_ratio=1.40 / aq=3:1.00
Язык : English
Default : Нет
Forced : Нет
Цветовой диапазон : Limited
Основные цвета : BT.709
Характеристики трансфера : BT.709
Коэффициенты матрицы : BT.709
Аудио #1
Идентификатор : 2
Формат : AC-3
Формат/Информация : Audio Coding 3
Расширение режима : CM (complete main)
Параметр Endianness формата : Big
Идентификатор кодека : A_AC3
Продолжительность : 1 ч. 25 м.
Вид битрейта : Постоянный
Битрейт : 640 Кбит/сек
Каналы : 6 каналов
Расположение каналов : Front: L C R, Side: L R, LFE
Частота : 48,0 КГц
Частота кадров : 31,250 кадров/сек (1536 spf)
Метод сжатия : С потерями
Размер потока : 390 Мбайт (4%)
Заголовок : MVO R5 «Columbia/Sony»
Язык : Russian
Default : Нет
Forced : Нет
Аудио #2
Идентификатор : 3
Формат : AC-3
Формат/Информация : Audio Coding 3
Расширение режима : CM (complete main)
Параметр Endianness формата : Big
Идентификатор кодека : A_AC3
Продолжительность : 1 ч. 25 м.
Вид битрейта : Постоянный
Битрейт : 192 Кбит/сек
Каналы : 2 канала
Расположение каналов : Front: L R
Частота : 48,0 КГц
Частота кадров : 31,250 кадров/сек (1536 spf)
Метод сжатия : С потерями
Размер потока : 117 Мбайт (1%)
Заголовок : MVO Видеосервис (VHS)
Язык : Russian
Default : Нет
Forced : Нет
Аудио #3
Идентификатор : 4
Формат : AC-3
Формат/Информация : Audio Coding 3
Расширение режима : CM (complete main)
Параметр Endianness формата : Big
Идентификатор кодека : A_AC3
Продолжительность : 1 ч. 25 м.
Вид битрейта : Постоянный
Битрейт : 640 Кбит/сек
Каналы : 6 каналов
Расположение каналов : Front: L C R, Side: L R, LFE
Частота : 48,0 КГц
Частота кадров : 31,250 кадров/сек (1536 spf)
Метод сжатия : С потерями
Размер потока : 390 Мбайт (4%)
Язык : English
Default : Нет
Forced : Нет
Текст #1
Идентификатор : 5
Формат : UTF-8
Идентификатор кодека : S_TEXT/UTF8
Идентификатор кодека/Информация : UTF-8 Plain Text
Язык : Russian
Default : Нет
Forced : Нет
Текст #2
Идентификатор : 6
Формат : UTF-8
Идентификатор кодека : S_TEXT/UTF8
Идентификатор кодека/Информация : UTF-8 Plain Text
Язык : English
Default : Нет
Forced : Нет





   Похожие торренты   Торрент   Размер 
В этой теме нет новых непрочитанных сообщений. Жестокие игры 2: Манчестерская подготовка / Cruel Intentions 2 (2000) WEBRip 1080p | P, P2

9 | 0

7.65 ГБ

В этой теме нет новых непрочитанных сообщений. Жестокие игры 3 / Cruel Intentions 3 (2004) DVD5 | P

23 | 4

3.87 ГБ

В этой теме нет новых непрочитанных сообщений. Жестокие игры 3 / Cruel Intentions 3 (2004) WEB-DL 720p | P

54 | 9

2.83 ГБ

В этой теме нет новых непрочитанных сообщений. Жестокие игры 3 / Cruel Intentions 3 (2004) DVDRip от brazolargo

0 | 2

596.35 МБ

В этой теме нет новых непрочитанных сообщений. Жестокие игры 3 / Cruel Intentions 3 (2004) DVDRip от ivandubskoj | P

173 | 22

1.47 ГБ

В этой теме нет новых непрочитанных сообщений. Жестокие игры 3 / Cruel Intentions 3 (2004) WEB-DLRip от ivandubskoj | 2 x P

712 | 31

1.46 ГБ

В этой теме нет новых непрочитанных сообщений. Жестокие игры 3 / Cruel Intentions 3 (2004) DVDRip от ivandubskoj | P

58 | 26

701.27 МБ




Вы не можете начинать темы
Вы не можете отвечать на сообщения
Вы не можете редактировать свои сообщения
Вы не можете удалять свои сообщения
Вы не можете добавлять вложения

Перейти:  
Для Мосгорсуда, Роскомнадзора и рекламодателей: mosgorsud-torrent[собачка]yandex.ru
 Вход
ppkBB3cker v.2 © 2008-2014 @ PPK
[ Time : 0.033s | 18 Queries | GZIP : Off ]

cron