img image001 image001 image001 image001 image001 image001 image001 image001 image001 image001 image001 image001 image001 image001 image001

Planets Sun Sun Sun
Статистика раздачи
Автор: Nickolas3434 | Размер: 21.2 ГБ | Добавлен: 03 дек 2017
Раздают: 0    Качают: 0
Скачать торрент
Скачать торрент
Описание торрента

СообщениеДобавлено: 03 дек 2017 

Информация о фильме
Название: Письмо Брежневу
Оригинальное название: Letter to Brezhnev
Год выхода: 1985
Жанр: драма, мелодрама, комедия
Режиссер: Крис Бернард
В ролях: Альфред Молина, Питер Фёрт, Трэйси Лиа, Александра Пигг, Марджи Кларк, Сьюзэн Демпси, Тед Вуд, Карл Чейз, Шэрон Пауэр, Робби Ди, Эдди Росс, Сид Ньюман, Джерри Уайт, Пэт Райли
Описание: Две молодые женщины из Ливерпуля решили провести вечер не как обычно в местном диско-клубе, а отправиться в город погулять. Здесь они знакомятся с двумя русскими моряками — одна ради смеха, а другая — неожиданно влюбившись в своего нового друга. Но вскоре моряк должен будет покинуть Англию…

Страна: Великобритания
Продолжительность: 01:33:35
Перевод: Авторский (одноголосый закадровый) Андрей Дольский
Субтитры: английские
Оригинальная аудиодорожка: английский
Файл
Качество: BDRemux 1080р
Видео: AVC / 1920x1080 / 16:9 / 24.0 fps / 29941 kbps / [email protected]
Аудио 1: Rus / AC3 / 48.0 KHz / 2.0 / 192 kbps / AVO / А. Дольский
Аудио 2: Rus / FLAC / 48.0 KHz / 2.0 / 651 kbps / 16 bit / AVO / А. Дольский
Аудио 3: Eng / FLAC / 48.0 KHz / 2.0 / 565 kbps / 16 bit
Аудио 4: Eng / FLAC / 48.0 KHz / 2.0 / 538 kbps / 16 bit / Commentary with Actor Margi Clarke
Аудио 5: Eng / FLAC / 48.0 KHz / 2.0 / 505 kbps / 16 bit / Commentary with Director Chris Bernard and Screenwriter Frank Clarke

Общее
Уникальный идентификатор : 229232771880060372840213177232820560869 (0xAC74A03EE7F0CBF09A968883111863E5)
Полное имя : Letter.to.Brezhnev.1985.BDRemux.1080p.mkv
Формат : Matroska
Версия формата : Version 4 / Version 2
Размер файла : 21,2 Гбайт
Продолжительность : 1 ч. 33 м.
Режим общего битрейта : Переменный
Общий поток : 32,4 Мбит/сек
Название фильма : Letter.to.Brezhnev.1985.BDRemux.1080p-porvaliparus
Дата кодирования : UTC 2017-06-23 08:03:37
Программа кодирования : mkvmerge v11.0.0 ('Alive') 64bit
Библиотека кодирования : libebml v1.3.4 + libmatroska v1.4.5
Видео
Идентификатор : 1
Формат : AVC
Формат/Информация : Advanced Video Codec
Профиль формата : [email protected]
Параметр CABAC формата : Да
Параметр ReFrames формата : 4 кадра
Идентификатор кодека : V_MPEG4/ISO/AVC
Продолжительность : 1 ч. 33 м.
Вид битрейта : Переменный
Битрейт : 30,0 Мбит/сек
Максимальный битрейт : 34,0 Мбит/сек
Ширина : 1920 пикселей
Высота : 1080 пикселей
Соотношение сторон : 16:9
Режим частоты кадров : Постоянный
Частота кадров : 24,000 кадра/сек
Стандарт вещания : NTSC
Цветовое пространство : YUV
Субдискретизация насыщенности : 4:2:0
Битовая глубина : 8 бит
Тип развёртки : Прогрессивная
Бит/(Пиксели*Кадры) : 0.602
Размер потока : 19,6 Гбайт (92%)
Заголовок : Letter.to.Brezhnev.1985.BDRemux.1080p
Default : Да
Forced : Нет
Цветовой диапазон : Limited
Основные цвета : BT.709
Характеристики трансфера : BT.709
Коэффициенты матрицы : BT.709
Аудио #1
Идентификатор : 2
Формат : AC-3
Формат/Информация : Audio Coding 3
Параметр Endianness формата : Big
Идентификатор кодека : A_AC3
Продолжительность : 1 ч. 33 м.
Вид битрейта : Постоянный
Битрейт : 192 Кбит/сек
Каналы : 2 канала
Расположение каналов : Front: L R
Частота : 48,0 КГц
Частота кадров : 31,250 кадров/сек (1536 spf)
Битовая глубина : 16 бит
Метод сжатия : С потерями
Размер потока : 129 Мбайт (1%)
Заголовок : AVO [А. Дольский]
Язык : Russian
Default : Да
Forced : Нет
Аудио #2
Идентификатор : 3
Формат : FLAC
Формат/Информация : Free Lossless Audio Codec
Идентификатор кодека : A_FLAC
Продолжительность : 1 ч. 33 м.
Вид битрейта : Переменный
Битрейт : 651 Кбит/сек
Каналы : 2 канала
Расположение каналов : Front: L R
Частота : 48,0 КГц
Частота кадров : 11,719 кадров/сек (4096 spf)
Битовая глубина : 16 бит
Размер потока : 436 Мбайт (2%)
Заголовок : AVO [А. Дольский]
Библиотека кодирования : libFLAC 20080709 (UTC 2008-07-09)
Язык : Russian
Default : Нет
Forced : Нет
Аудио #3
Идентификатор : 4
Формат : FLAC
Формат/Информация : Free Lossless Audio Codec
Идентификатор кодека : A_FLAC
Продолжительность : 1 ч. 33 м.
Вид битрейта : Переменный
Битрейт : 565 Кбит/сек
Каналы : 2 канала
Расположение каналов : Front: L R
Частота : 48,0 КГц
Частота кадров : 11,719 кадров/сек (4096 spf)
Битовая глубина : 16 бит
Размер потока : 378 Мбайт (2%)
Библиотека кодирования : libFLAC 1.2.1 (UTC 2007-09-17)
Язык : English
Default : Нет
Forced : Нет
Аудио #4
Идентификатор : 5
Формат : FLAC
Формат/Информация : Free Lossless Audio Codec
Идентификатор кодека : A_FLAC
Продолжительность : 1 ч. 33 м.
Вид битрейта : Переменный
Битрейт : 538 Кбит/сек
Каналы : 2 канала
Расположение каналов : Front: L R
Частота : 48,0 КГц
Частота кадров : 11,719 кадров/сек (4096 spf)
Битовая глубина : 16 бит
Размер потока : 360 Мбайт (2%)
Заголовок : Commentary with Actor Margi Clarke
Библиотека кодирования : libFLAC 1.2.1 (UTC 2007-09-17)
Язык : English
Default : Нет
Forced : Нет
Аудио #5
Идентификатор : 6
Формат : FLAC
Формат/Информация : Free Lossless Audio Codec
Идентификатор кодека : A_FLAC
Продолжительность : 1 ч. 33 м.
Вид битрейта : Переменный
Битрейт : 505 Кбит/сек
Каналы : 2 канала
Расположение каналов : Front: L R
Частота : 48,0 КГц
Частота кадров : 11,719 кадров/сек (4096 spf)
Битовая глубина : 16 бит
Размер потока : 338 Мбайт (2%)
Заголовок : Commentary with Director Chris Bernard and Screenwriter Frank Clarke
Библиотека кодирования : libFLAC 1.2.1 (UTC 2007-09-17)
Язык : English
Default : Нет
Forced : Нет
Текст
Идентификатор : 7
Формат : UTF-8
Идентификатор кодека : S_TEXT/UTF8
Идентификатор кодека/Информация : UTF-8 Plain Text
Продолжительность : 1 ч. 32 м.
Битрейт : 69 бит/сек
ElementCount : 1203
Размер потока : 47,1 Кбайт (0%)
Язык : English
Default : Нет
Forced : Нет
Меню
00:00:00.000 : en:Chapter 1
00:09:50.000 : en:Chapter 2
00:17:19.083 : en:Chapter 3
00:27:36.917 : en:Chapter 4
00:38:51.000 : en:Chapter 5
00:46:50.625 : en:Chapter 6
00:53:35.000 : en:Chapter 7
01:01:40.792 : en:Chapter 8
01:08:05.833 : en:Chapter 9
01:15:13.250 : en:Chapter 10
01:21:45.542 : en:Chapter 11
01:30:20.000 : en:Chapter 12



   Похожие торренты   Торрент   Размер 
В этой теме нет новых непрочитанных сообщений. Письмо / The Letter / Pyeon ji (1997) DVDRip | L1

1 | 2

700.97 МБ

В этой теме нет новых непрочитанных сообщений. Письмо счастья / Chain Letter (2010) DVDRip

4 | 4

690.99 МБ

В этой теме нет новых непрочитанных сообщений. Любовное письмо / Love Letter (1995) DVDRip

7 | 4

1.46 ГБ

В этой теме нет новых непрочитанных сообщений. Любовное письмо / The Love Letter (1998) DVDRip

67 | 8

1.37 ГБ

В этой теме нет новых непрочитанных сообщений. Письмо счастья / Chain Letter (2010) HDRip

34 | 2

1.37 ГБ

В этой теме нет новых непрочитанных сообщений. Любовное письмо / The Love Letter (1998) DVDRip

12 | 14

700.34 МБ

В этой теме нет новых непрочитанных сообщений. Кремлевское письмо / The Kremlin Letter (1970) DVDRip от Generalfilm

0 | 3

1.37 ГБ




Вы не можете начинать темы
Вы не можете отвечать на сообщения
Вы не можете редактировать свои сообщения
Вы не можете удалять свои сообщения
Вы не можете добавлять вложения

Перейти:  
Для Мосгорсуда, Роскомнадзора и рекламодателей: mosgorsud-torrent[собачка]yandex.ru
 Вход
ppkBB3cker v.2 © 2008-2014 @ PPK
[ Time : 0.045s | 19 Queries | GZIP : Off ]

cron