img image001 image001 image001 image001 image001 image001 image001 image001 image001 image001 image001 image001 image001 image001 image001

Planets Sun Sun Sun
Статистика раздачи
Автор: Nickolas3434 | Размер: 40.49 ГБ | Добавлен: 03 дек 2017
Раздают: 6    Качают: 0
Скачать торрент
Скачать торрент
Описание торрента

СообщениеДобавлено: 03 дек 2017 

Информация о фильме
Название: Мусаси Миямото
Оригинальное название: Miyamoto Musashi
Год выхода: 1973
Жанр: боевик, драма
Режиссер: Таи Като
В ролях: Дзиро Тамия, Дзиро Тамия, Кэйко Мацудзака, Мицуко Байсё, Хидэки Такахаси, Фуранки Сакаи, Тисю Рю, Тосиюки Хосокава, Ёси Като, Усио Акаси, Итиро Арисима, Сэидзи Эндо, Таканобу Ходзуми, Кэнтаро Имаи, Томико Исии, Кэндзиро Исияма, Такэси Като, Кэндзи Кимура
Описание: Этот фильм представляет собой одну из экранизаций повествований о Миямото Мусаси – японском ронине, считающимся одним из самых известных фехтовальщиков в истории Японии. Мусаси стал знаменит благодаря выдающейся технике владения мечом, которую он с раннего детства оттачивал во многих поединках, используя деревянный меч, а также технику боя двумя мечами: длинным — катаной и коротким — вакидзаси.

Страна: Япония
Продолжительность: 02:28:21
Перевод: Любительский (одноголосый закадровый) Алексей Яковлев
Субтитры: английские
Оригинальная аудиодорожка: японский
Файл
Качество: BDRemux 1080р
Видео: AVC / 1920x1080 / 16:9 / 23.976fps / 37959 kbps / [email protected]
Аудио 1: Rus / AC3 / 48.0 KHz / 2.0 / 192 kbps / VO / А. Яковлев
Аудио 2: Rus / FLAC / 48.0 KHz / 2.0 / 574 kbps / VO / А. Яковлев
Аудио 3: Jap / FLAC / 48.0 KHz / 2.0 / 514 kbps

Общее
Уникальный идентификатор : 184136833799796864860229959255298741815 (0x8A8776D6555B056DB513831210D51637)
Полное имя : Miyamoto.Musashi.1973.BDRemux.1080p.mkv
Формат : Matroska
Версия формата : Version 4 / Version 2
Размер файла : 40,5 Гбайт
Продолжительность : 2 ч. 28 м.
Режим общего битрейта : Переменный
Общий поток : 39,1 Мбит/сек
Название фильма : Miyamoto.Musashi.1973.BDRemux.1080p-porvaliparus
Дата кодирования : UTC 2017-06-19 01:39:07
Программа кодирования : mkvmerge v12.0.0 ('Trust / Lust') 64bit
Библиотека кодирования : libebml v1.3.4 + libmatroska v1.4.5
Видео
Идентификатор : 1
Формат : AVC
Формат/Информация : Advanced Video Codec
Профиль формата : [email protected]
Параметр CABAC формата : Да
Параметр ReFrames формата : 4 кадра
Идентификатор кодека : V_MPEG4/ISO/AVC
Продолжительность : 2 ч. 28 м.
Вид битрейта : Переменный
Битрейт : 37,8 Мбит/сек
Максимальный битрейт : 40,0 Мбит/сек
Ширина : 1920 пикселей
Высота : 1080 пикселей
Соотношение сторон : 16:9
Режим частоты кадров : Постоянный
Частота кадров : 23,976 (24000/1001) кадра/сек
Цветовое пространство : YUV
Субдискретизация насыщенности : 4:2:0
Битовая глубина : 8 бит
Тип развёртки : Прогрессивная
Бит/(Пиксели*Кадры) : 0.760
Размер потока : 39,2 Гбайт (97%)
Заголовок : Miyamoto.Musashi.1973.BDRemux.1080p
Default : Да
Forced : Нет
Аудио #1
Идентификатор : 2
Формат : AC-3
Формат/Информация : Audio Coding 3
Параметр Endianness формата : Big
Идентификатор кодека : A_AC3
Продолжительность : 2 ч. 28 м.
Вид битрейта : Постоянный
Битрейт : 192 Кбит/сек
Каналы : 2 канала
Расположение каналов : Front: L R
Частота : 48,0 КГц
Частота кадров : 31,250 кадров/сек (1536 spf)
Битовая глубина : 16 бит
Метод сжатия : С потерями
Размер потока : 204 Мбайт (0%)
Заголовок : VO [А. Яковлев]
Язык : Russian
Default : Да
Forced : Нет
Аудио #2
Идентификатор : 3
Формат : FLAC
Формат/Информация : Free Lossless Audio Codec
Идентификатор кодека : A_FLAC
Продолжительность : 2 ч. 28 м.
Вид битрейта : Переменный
Битрейт : 574 Кбит/сек
Каналы : 2 канала
Расположение каналов : Front: L R
Частота : 48,0 КГц
Частота кадров : 11,719 кадров/сек (4096 spf)
Битовая глубина : 24 бит
Размер потока : 609 Мбайт (1%)
Заголовок : VO [А. Яковлев]
Библиотека кодирования : libFLAC 20080709 (UTC 2008-07-09)
Язык : Russian
Default : Нет
Forced : Нет
Аудио #3
Идентификатор : 4
Формат : FLAC
Формат/Информация : Free Lossless Audio Codec
Идентификатор кодека : A_FLAC
Продолжительность : 2 ч. 28 м.
Вид битрейта : Переменный
Битрейт : 514 Кбит/сек
Каналы : 2 канала
Расположение каналов : Front: L R
Частота : 48,0 КГц
Частота кадров : 11,719 кадров/сек (4096 spf)
Битовая глубина : 24 бит
Размер потока : 545 Мбайт (1%)
Библиотека кодирования : libFLAC 1.2.1 (UTC 2007-09-17)
Язык : Japanese
Default : Нет
Forced : Нет
Текст
Идентификатор : 5
Формат : UTF-8
Идентификатор кодека : S_TEXT/UTF8
Идентификатор кодека/Информация : UTF-8 Plain Text
Продолжительность : 2 ч. 28 м.
Битрейт : 32 бит/сек
ElementCount : 1267
Размер потока : 35,7 Кбайт (0%)
Язык : English
Default : Нет
Forced : Нет
Меню
00:00:00.000 : en:00:00:00.000
00:13:15.586 : en:00:13:15.586
00:23:53.849 : en:00:23:53.849
00:37:27.245 : en:00:37:27.245
00:49:16.287 : en:00:49:16.287
00:59:32.944 : en:00:59:32.944
01:07:28.544 : en:01:07:28.544
01:12:45.820 : en:01:12:45.820
01:20:38.292 : en:01:20:38.292
01:33:30.855 : en:01:33:30.855
01:44:15.624 : en:01:44:15.624
01:52:23.236 : en:01:52:23.236
02:06:02.889 : en:02:06:02.889
02:19:01.917 : en:02:19:01.917



   Похожие торренты   Торрент   Размер 
В этой теме нет новых непрочитанных сообщений. Миямото Мусаши, Самурай / Miyamoto Musashi (1954-1956) DVDRip dy F.Samatar | Трилогия

117 | 9

4.16 ГБ

В этой теме нет новых непрочитанных сообщений. Самурай: Путь воина / Miyamoto Musashi (1954) BDRemux 1080р | P, A

3 | 0

17.04 ГБ

В этой теме нет новых непрочитанных сообщений. Самурай 2: Дуэль у храма / Zoku Miyamoto Musashi: Ichijôji no kettô (1955) BDRemux 1080р | P, A

1 | 1

19.07 ГБ

В этой теме нет новых непрочитанных сообщений. Самурай 3: Поединок на острове / Miyamoto Musashi kanketsuhen: kettô Ganryûjima (1956) BDRemux 1080р | P, A

1 | 1

18.21 ГБ

В этой теме нет новых непрочитанных сообщений. Миямото Мусаси - Книга пяти колец (2013) MP3

8 | 0

286.71 МБ

В этой теме нет новых непрочитанных сообщений. Ёсикава Эйдзи - Десять меченосцев (Миямото Мусаси) (2004) FB2, RTF, TXT

55 | 3

16.43 МБ

В этой теме нет новых непрочитанных сообщений. Самурай: Путь воина / Samurai 1: Miyamoto Musashi (1954) BDRip от HQ-ViDEO

20 | 10

1.54 ГБ




Вы не можете начинать темы
Вы не можете отвечать на сообщения
Вы не можете редактировать свои сообщения
Вы не можете удалять свои сообщения
Вы не можете добавлять вложения

Перейти:  
Для Мосгорсуда, Роскомнадзора и рекламодателей: mosgorsud-torrent[собачка]yandex.ru
 Вход
ppkBB3cker v.2 © 2008-2014 @ PPK
[ Time : 0.047s | 19 Queries | GZIP : Off ]

cron