img image001 image001 image001 image001 image001 image001 image001 image001 image001 image001 image001 image001 image001 image001 image001

Planets Sun Sun Sun
Статистика раздачи
Автор: Nickolas3434 | Размер: 19.15 ГБ | Добавлен: 03 дек 2017
Раздают: 3    Качают: 2
Скачать торрент
Скачать торрент
Описание торрента

СообщениеДобавлено: 03 дек 2017 

Информация о фильме
Название: Звезда
Оригинальное название: Étoile / Ballet
Год выхода: 1989
Жанр: фэнтези, мелодрама, триллер
Режиссер: Питер Дель Монте
В ролях: Дженнифер Коннелли, Гари МакКлири, Лоран Терзиефф, Олимпия Карлизи, Марио Мароцци, Дональд Ходсон, Чарльз Дёрнинг
Описание: Американская балерина приезжает в Венгрию, чтобы поступить в балетную школу. Но вскоре девушка понимает, что здесь все является не тем, чем кажется на первый взгляд.

Страна: Италия
Продолжительность: 01:41:14
Перевод: Профессиональный (двухголосый закадровый)
Субтитры: русские
Оригинальная аудиодорожка: итальянский
Файл
Качество: BDRemux 1080р
Видео: AVC / 1920x1080 / 16:9 / 23.976 fps / 24672 kbps / [email protected]
Аудио 1: Rus / AC3 / 48.0 KHz / 2.0 / 192 kbps / DVO
Аудио 2: Eng / DTS-HD MA / 48.0 KHz / 2.0 / 1826 kbps / 24 bit (DTS Core 48.0 KHz / 2.0 / 1509 kbps / 24 bit)
Аудио 3: Ita / AC3 / 48.0 KHz / 2.0 / 384 kbps

Общее
Уникальный идентификатор : 232122517056483459642277329827341327567 (0xAEA12BAED6749A448198BB52E8F4DCCF)
Полное имя : Ballet.1989.BDRemux.1080p.mkv
Формат : Matroska
Версия формата : Version 4 / Version 2
Размер файла : 19,1 Гбайт
Продолжительность : 1 ч. 41 м.
Режим общего битрейта : Переменный
Общий поток : 27,1 Мбит/сек
Название фильма : Ballet.1989.BDRemux.1080p-porvaliparus
Дата кодирования : UTC 2017-12-03 01:21:53
Программа кодирования : mkvmerge v18.0.0 ('Apricity') 64-bit
Библиотека кодирования : libebml v1.3.5 + libmatroska v1.4.8
Видео
Идентификатор : 1
Формат : AVC
Формат/Информация : Advanced Video Codec
Профиль формата : [email protected]
Настройки формата : CABAC / 3 Ref Frames
Параметр CABAC формата : Да
Параметр RefFrames формата : 3 кадра
Параметр GOP формата : M=3, N=12
Идентификатор кодека : V_MPEG4/ISO/AVC
Продолжительность : 1 ч. 41 м.
Вид битрейта : Переменный
Битрейт : 24,7 Мбит/сек
Максимальный битрейт : 30,9 Мбит/сек
Ширина : 1920 пикселей
Высота : 1080 пикселей
Соотношение сторон : 16:9
Режим частоты кадров : Постоянный
Частота кадров : 23,976 (24000/1001) кадра/сек
Стандарт вещания : NTSC
Цветовое пространство : YUV
Субдискретизация насыщенности : 4:2:0
Битовая глубина : 8 бит
Тип развёртки : Прогрессивная
Бит/(Пиксели*Кадры) : 0.496
Размер потока : 17,4 Гбайт (91%)
Заголовок : Ballet.1989.BDRemux.1080p
Default : Да
Forced : Нет
Цветовой диапазон : Limited
Основные цвета : BT.709
Характеристики трансфера : BT.709
Коэффициенты матрицы : BT.709
Аудио #1
Идентификатор : 2
Формат : AC-3
Формат/Информация : Audio Coding 3
Идентификатор кодека : A_AC3
Продолжительность : 1 ч. 41 м.
Вид битрейта : Постоянный
Битрейт : 192 Кбит/сек
Каналы : 2 канала
Расположение каналов : Front: L R
Частота : 48,0 КГц
Частота кадров : 31,250 кадров/сек (1536 SPF)
Битовая глубина : 16 бит
Метод сжатия : С потерями
Размер потока : 139 Мбайт (1%)
Заголовок : DVO
Язык : Russian
Default : Да
Forced : Нет
Аудио #2
Идентификатор : 3
Формат : DTS
Формат/Информация : Digital Theater Systems
Профиль формата : MA / Core
Идентификатор кодека : A_DTS
Продолжительность : 1 ч. 41 м.
Вид битрейта : Переменный / Постоянный
Битрейт : 1826 Кбит/сек / 1509 Кбит/сек
Каналы : 2 канала
Расположение каналов : Front: L R
Частота : 48,0 КГц
Частота кадров : 93,750 кадра/сек (512 SPF)
Битовая глубина : 24 бит
Метод сжатия : Без потерь / Lossy
Размер потока : 1,29 Гбайт (7%)
Язык : English
Default : Нет
Forced : Нет
Аудио #3
Идентификатор : 4
Формат : AC-3
Формат/Информация : Audio Coding 3
Идентификатор кодека : A_AC3
Продолжительность : 1 ч. 41 м.
Вид битрейта : Постоянный
Битрейт : 384 Кбит/сек
Каналы : 2 канала
Расположение каналов : Front: L R
Частота : 48,0 КГц
Частота кадров : 31,250 кадров/сек (1536 SPF)
Битовая глубина : 16 бит
Метод сжатия : С потерями
Размер потока : 278 Мбайт (1%)
Язык : Italian
Default : Нет
Forced : Нет
Текст
Идентификатор : 5
Формат : UTF-8
Идентификатор кодека : S_TEXT/UTF8
Идентификатор кодека/Информация : UTF-8 Plain Text
Продолжительность : 1 ч. 37 м.
Битрейт : 38 бит/сек
ElementCount : 631
Размер потока : 27,3 Кбайт (0%)
Заголовок : doc_ravik
Язык : Russian
Default : Нет
Forced : Нет
Меню
00:00:00.000 : en:00:00:00.000
00:07:47.968 : en:00:07:47.968
00:14:04.427 : en:00:14:04.427
00:21:15.524 : en:00:21:15.524
00:25:39.955 : en:00:25:39.955
00:32:04.256 : en:00:32:04.256
00:39:36.749 : en:00:39:36.749
00:46:57.857 : en:00:46:57.857
00:55:33.747 : en:00:55:33.747
01:01:20.927 : en:01:01:20.927
01:11:32.371 : en:01:11:32.371
01:20:08.721 : en:01:20:08.721
01:26:58.714 : en:01:26:58.714
01:35:51.329 : en:01:35:51.329



   Похожие торренты   Торрент   Размер 
В этой теме нет новых непрочитанных сообщений. Звезда / Étoile (1989) BDRip 720p | P2

3 | 1

7.48 ГБ

В этой теме нет новых непрочитанных сообщений. Этуаль / Звезда / Étoile (1989) DVDRemux | P2

22 | 21

3.42 ГБ

В этой теме нет новых непрочитанных сообщений. Утренняя звезда / L'étoile du jour (2012) HDRip | L

14 | 0

1.37 ГБ

В этой теме нет новых непрочитанных сообщений. Моя прекрасная звезда / Ma bonne etoile (2012) HDRip | P

0 | 1

1.37 ГБ

В этой теме нет новых непрочитанных сообщений. Моя прекрасная звезда / Ma bonne etoile (2012) DVD9 | D

4 | 2

7.3 ГБ

В этой теме нет новых непрочитанных сообщений. Утренняя звезда / L'étoile du jour (2012) BDRip 720p | L

31 | 4

3.54 ГБ

В этой теме нет новых непрочитанных сообщений. Моя прекрасная звезда / Ma bonne étoile (2012) BDRip-AVC от HELLYWOOD | D

18 | 3

1.46 ГБ




Вы не можете начинать темы
Вы не можете отвечать на сообщения
Вы не можете редактировать свои сообщения
Вы не можете удалять свои сообщения
Вы не можете добавлять вложения

Перейти:  
Для Мосгорсуда, Роскомнадзора и рекламодателей: mosgorsud-torrent[собачка]yandex.ru
 Вход
ppkBB3cker v.2 © 2008-2014 @ PPK
[ Time : 0.043s | 19 Queries | GZIP : Off ]

cron