img image001 image001 image001 image001 image001 image001 image001 image001 image001 image001 image001 image001 image001 image001 image001

Planets Sun Sun Sun
Статистика раздачи
Автор: Nickolas3434 | Размер: 59.65 ГБ | Добавлен: 03 дек 2017
Раздают: 8    Качают: 10
Скачать торрент
Скачать торрент
Описание торрента

СообщениеДобавлено: 03 дек 2017 

Производство: США, Китай, Гонконг, Великобритания, Италия, Канада, Новая Зеландия / Warner Bros. Pictures
Жанр: фантастика, фэнтези, боевик, приключения, военный
Режиссер: Пэтти Дженкинс
Продюсер: Джон Берг, Уэсли Коллер, Томми Гормли
Актеры: Галь Гадот, Робин Райт, Дэвид Тьюлис, Конни Нильсен, Крис Пайн, Елена Анайя, Люси Дэвис, Юэн Бремнер, Даутцен Крёз, Дэнни Хьюстон
Описание:
Перед тем как стать Чудо-Женщиной, она была Дианой — принцессой амазонок, обученной быть непобедимой воительницей. И когда на берегах ограждённого от внешнего мира райского острова, который служил ей родиной, терпит крушение американский пилот и рассказывает о серьёзном конфликте, бушующем во внешнем мире, Диана покидает свой дом, чтобы справиться с этой угрозой. И там, сражаясь бок о бок с человеком в войне за мир, Диана обнаружит всю полноту своей власти… и своё истинное предназначение.

Релиз от: JATO, BLUEBIRD
Продолжительность: 02:21:15
Качество: UHD BDRemux (HDR)
Перевод: Дублированный (Лицензия BD EUR), Авторский (одноголосый, закадровый) (А. Дасевич)
Субтитры: Русские (Full-length, Forced), Украинские (Forced), Английские
Видео: H.265/HEVC, 3840x2160p, (16:9), 50.0 Mb/s, 23.976 fps
Аудио: AC3, 6 ch, 448 kbps - Русский, Дубляж
Аудио: AC3, 2 ch, 192 kbps - Украинский
Аудио: DTS-HD MA, 8 ch, 5419 kbps - Русский, А. Дасевич > tnx Neo_S
Аудио: TrueHD, 8 ch, 4279 kbps - Английский
General
Unique ID : 210168420854252804228668412063020655403 (0x9E1CF72B955359BBBEAF39C48B7EA32B)
Complete name : WONDER_WOMAN_BD_UHD_HDR_REMUX-BLUEBIRD.mkv
Format : Matroska
Format version : Version 4 / Version 2
File size : 59.6 GiB
Duration : 2 h 21 min
Overall bit rate mode : Variable
Overall bit rate : 60.4 Mb/s
Movie name : WONDER_WOMAN_BD_UHD_HDR_REMUX-BLUEBIRD
Encoded date : UTC 2017-11-02 13:29:30
Writing application : mkvmerge v16.0.0 ('Protest') 64-bit
Writing library : libebml v1.3.5 + libmatroska v1.4.8
Cover : Yes
Attachments : cover.png
Video
ID : 1
Format : HEVC
Format/Info : High Efficiency Video Coding
Format profile : Main [email protected]@High
Codec ID : V_MPEGH/ISO/HEVC
Duration : 2 h 21 min
Bit rate : 50.0 Mb/s
Width : 3 840 pixels
Height : 2 160 pixels
Display aspect ratio : 16:9
Frame rate mode : Constant
Frame rate : 23.976 (24000/1001) FPS
Color space : YUV
Chroma subsampling : 4:2:0 (Type 2)
Bit depth : 10 bits
Bits/(Pixel*Frame) : 0.251
Stream size : 49.3 GiB (83%)
Title : WONDER_WOMAN_BD_UHD_HDR_REMUX-BLUEBIRD
Writing library : ATEME Titan File 3.8.3 (4.8.3.0)
Default : Yes
Forced : No
Color range : Limited
Color primaries : BT.2020
Transfer characteristics : SMPTE ST 2084
Matrix coefficients : BT.2020 non-constant
Mastering display color primaries : R: x=0.680000 y=0.320000, G: x=0.265000 y=0.690000, B: x=0.150000 y=0.060000, White point: x=0.312700 y=0.329000
Mastering display luminance : min: 0.0050 cd/m2, max: 4000.0000 cd/m2
Maximum Content Light Level : 1721 cd/m2
Maximum Frame-Average Light Level : 379 cd/m2
Audio #1
ID : 2
Format : AC-3
Format/Info : Audio Coding 3
Format settings, Endianness : Big
Codec ID : A_AC3
Duration : 2 h 21 min
Bit rate mode : Constant
Bit rate : 448 kb/s
Channel(s) : 6 channels
Channel positions : Front: L C R, Side: L R, LFE
Sampling rate : 48.0 kHz
Frame rate : 31.250 FPS (1536 SPF)
Bit depth : 16 bits
Compression mode : Lossy
Stream size : 453 MiB (1%)
Title : [DUB] DD 5.1 @ 448 kbps
Language : Russian
Service kind : Complete Main
Default : Yes
Forced : No
Audio #2
ID : 3
Format : AC-3
Format/Info : Audio Coding 3
Mode : Dolby Digital
Format settings, Endianness : Big
Codec ID : A_AC3
Duration : 2 h 21 min
Bit rate mode : Constant
Bit rate : 192 kb/s
Channel(s) : 2 channels
Channel positions : Front: L R
Sampling rate : 48.0 kHz
Frame rate : 31.250 FPS (1536 SPF)
Bit depth : 16 bits
Compression mode : Lossy
Stream size : 194 MiB (0%)
Title : [DUB] DD 2.0 @ 192 kbps
Language : Ukrainian
Service kind : Complete Main
Default : No
Forced : No
Audio #3
ID : 4
Format : DTS
Format/Info : Digital Theater Systems
Format profile : MA / Core
Mode : 16
Format settings, Endianness : Big
Codec ID : A_DTS
Duration : 2 h 21 min
Bit rate mode : Variable / Constant
Bit rate : 5 419 kb/s / 1 509 kb/s
Channel(s) : 8 channels / 6 channels
Channel positions : Front: L C R, Side: L R, Back: L R, LFE / Front: L C R, Side: L R, LFE
Sampling rate : 48.0 kHz
Frame rate : 93.750 FPS (512 SPF)
Bit depth : 24 bits
Compression mode : Lossless / Lossy
Stream size : 5.35 GiB (9%)
Title : [VO] DTS-HD MA 7.1 @ 4642 kbps (A. Dasevich)
Language : Russian
Default : No
Forced : No
Audio #4
ID : 5
Format : TrueHD
Format profile : TrueHD+Atmos / TrueHD
Codec ID : A_TRUEHD
Duration : 2 h 21 min
Bit rate mode : Variable
Bit rate : 4 279 kb/s
Maximum bit rate : 7 509 kb/s
Channel(s) : Object Based / 8 channels
Channel positions : Object Based / Front: L C R, Side: L R, Back: L R, LFE
Sampling rate : / 48.0 kHz
Frame rate : 1 200.000 FPS (40 SPF)
Compression mode : Lossless
Stream size : 4.22 GiB (7%)
Title : [ORIGINAL] ATMOS 7.1 @ 4727 kbps
Language : English
Default : No
Forced : No
Text #1
ID : 6
Format : PGS
Codec ID : S_HDMV/PGS
Codec ID/Info : Picture based subtitle format used on BDs/HD-DVDs
Duration : 2 h 20 min
Bit rate : 27.4 kb/s
Count of elements : 2602
Stream size : 27.5 MiB (0%)
Title : Full-length
Language : Russian
Default : No
Forced : No
Text #2
ID : 7
Format : PGS
Codec ID : S_HDMV/PGS
Codec ID/Info : Picture based subtitle format used on BDs/HD-DVDs
Duration : 2 h 20 min
Bit rate : 29.6 kb/s
Count of elements : 3654
Stream size : 29.7 MiB (0%)
Title : Full-length
Language : English
Default : No
Forced : No
Text #3
ID : 8
Format : PGS
Codec ID : S_HDMV/PGS
Codec ID/Info : Picture based subtitle format used on BDs/HD-DVDs
Duration : 2 h 18 min
Bit rate : 400 b/s
Count of elements : 32
Stream size : 407 KiB (0%)
Title : Forced
Language : Russian
Default : Yes
Forced : Yes
Text #4
ID : 9
Format : PGS
Codec ID : S_HDMV/PGS
Codec ID/Info : Picture based subtitle format used on BDs/HD-DVDs
Duration : 2 h 8 min
Bit rate : 710 b/s
Count of elements : 48
Stream size : 670 KiB (0%)
Title : Forced
Language : Ukrainian
Default : No
Forced : No
Menu
00:00:00.000 : en:Chapter 1
00:10:26.917 : en:Chapter 2
00:23:12.557 : en:Chapter 3
00:33:10.738 : en:Chapter 4
00:43:55.132 : en:Chapter 5
00:54:25.553 : en:Chapter 6
01:07:38.262 : en:Chapter 7
01:22:30.195 : en:Chapter 8
01:34:02.845 : en:Chapter 9
01:45:37.998 : en:Chapter 10
01:57:43.765 : en:Chapter 11
02:10:41.416 : en:Chapter 12

Скриншоты:



   Похожие торренты   Торрент   Размер 
В этой теме нет новых непрочитанных сообщений. Чудо-женщина / Wonder Woman (2017) UHD BDRemux 2160p от ExKinoRay | 4K | HDR | Лицензия

33 | 14

54.49 ГБ

В этой теме нет новых непрочитанных сообщений. Чудо-женщина / Wonder Woman (2017) BDRemux 1080р от ExKinoRay | iTunes

407 | 90

25.33 ГБ

В этой теме нет новых непрочитанных сообщений. Чудо-женщина / Wonder Woman (2017) BDRemux 1080р от ExKinoRay | 3D-Video | iTunes

18 | 1

37.85 ГБ

В этой теме нет новых непрочитанных сообщений. Чудо-женщина / Wonder Woman (2017) BDRip от HQCLUB | D | Лицензия

29 | 4

2.18 ГБ

В этой теме нет новых непрочитанных сообщений. Чудо-женщина / Wonder Woman (2017) HDRip от Kaztorrents | КПК | Лицензия

68 | 6

537.27 МБ

В этой теме нет новых непрочитанных сообщений. Чудо-женщина 3D / Wonder Woman 3D (2017) Blu-Ray EUR 1080p | 3D-Video | Лицензия

60 | 22

42.74 ГБ

В этой теме нет новых непрочитанных сообщений. Чудо-женщина / Wonder Woman (2017) BDRip от HQ-ViDEO | Лицензия

498 | 12

2.91 ГБ




Вы не можете начинать темы
Вы не можете отвечать на сообщения
Вы не можете редактировать свои сообщения
Вы не можете удалять свои сообщения
Вы не можете добавлять вложения

Перейти:  
Для Мосгорсуда, Роскомнадзора и рекламодателей: mosgorsud-torrent[собачка]yandex.ru
 Вход
ppkBB3cker v.2 © 2008-2014 @ PPK
[ Time : 0.046s | 18 Queries | GZIP : Off ]

cron