img image001 image001 image001 image001 image001 image001 image001 image001 image001 image001 image001 image001 image001 image001 image001

Planets Sun Sun Sun
Статистика раздачи
Автор: Nickolas3434 | Размер: 13.08 ГБ | Добавлен: 03 дек 2017
Раздают: 7    Качают: 2
Скачать торрент
Скачать торрент
Описание торрента

СообщениеДобавлено: 03 дек 2017 

Информация о фильме
✧ Название: Война Харта
✧ Оригинальное название: Hart's War
✧ Год выхода: 2002
Жанр: драма, военный
✧ Страна: США
✧ Студия: Cheyenne Enterprises, David Foster Productions, David Ladd Films, Metro-Goldwyn-Mayer (MGM)
✧ Продолжительность: 02:04:49
✧ Перевод: Профессиональный многоголосый, профессиональный двухголосый, профессиональный одноголосый, авторский одноголосый
✧ Режиссер: Грегори Хоблит / Gregory Hoblit
✧ В ролях: Брюс Уиллис, Колин Фаррелл, Терренс Хоуард, Коул Хаузер, Марсель Юреш, Лайнэс Роуч, В. Реон Шэннон, Мори Стерлинг, Сэм Джэгер, Скотт Майкл Кемпбелл, Рори Кокрейн, Себастьян Тиллинджер
О фильме
Лейтенант Томми Харт – студент-юрист второго года обучения. Во время Второй мировой войны он становится помощником офицера, попадает в плен и оказывается в немецком лагере для военнопленных. Там он знакомится с другим военнопленным – полковником Уильямом МакНамара. Узнав о том, что Харт знает закон, МакНамара поручает ему защиту на суде чернокожего заключенного, обвиняющегося в убийстве другого военнопленного. Однако на самом деле МакНамара хочет использовать судебный процесс для того, чтобы совершить попытку спастись из лагеря. А Харту предстоит сделать сложный выбор между своей страной, этикой и собственной жизнью.

MPAA: R - Лицам до 17 лет обязательно присутствие взрослого
Файл
✧ Качество: BDRip 1080p
✧ Видео: MPEG-4 AVC, 1920х812 (2.35:1), 11000 kbps, 23.976 fps, 0.294 bpp
✧ Аудио 1: Russian: 48 kHz, AC3, 5.1 ch, 448 kbps - MVO, R5
✧ Аудио 2: Russian: 48 kHz, AC3, 2.0 ch, 192 kbps - DVO, Лазер Видео
✧ Аудио 3: Russian: 48 kHz, AC3, 5.1 ch, 448 kbps - MVO
✧ Аудио 4: Russian: 48 kHz, AC3, 5.1 ch, 384 kbps - VO
✧ Аудио 5: Russian: 48 kHz, AC3, 5.1 ch, 640 kbps - AVO, Е. Рудой
✧ Аудио 6: Ukrainian: 48 kHz, AC3, 2.0 ch, 192 kbps - MVO, K1
✧ Аудио 7: Ukrainian: 48 kHz, AC3, 2.0 ch, 192 kbps - MVO, AMC
✧ Аудио 8: English: 48 kHz, DTS, 5.1 ch, 1509 kbps - Оригинал
✧ Субтитры: Русские, украинские, английские
✧ Навигация по главам: есть

Общее
Уникальный идентификатор : 253036217798964316394176187753803004446 (0xBE5D00BD39B8A09C8BF3BB08409BBA1E)
Полное имя : Harts.War.2002.BDRip.1080p.mkv
Формат : Matroska
Версия формата : Version 2
Размер файла : 13,1 Гбайт
Продолжительность : 2 ч. 4 м.
Общий поток : 15,0 Мбит/сек
Название фильма : Война Харта (2002)
Дата кодирования : UTC 2017-12-02 19:38:46
Программа кодирования : mkvmerge v5.8.0 ('No Sleep / Pillow') built on Sep 2 2012 15:37:04
Библиотека кодирования : libebml v1.2.3 + libmatroska v1.3.0
Видео
Идентификатор : 1
Формат : AVC
Формат/Информация : Advanced Video Codec
Профиль формата : [email protected]
Параметр CABAC формата : Да
Параметр RefFrames формата : 5 кадров
Идентификатор кодека : V_MPEG4/ISO/AVC
Продолжительность : 2 ч. 4 м.
Битрейт : 11,0 Мбит/сек
Ширина : 1920 пикселей
Высота : 812 пикселей
Соотношение сторон : 2,35:1
Режим частоты кадров : Постоянный
Частота кадров : 23,976 (24000/1001) кадра/сек
Цветовое пространство : YUV
Субдискретизация насыщенности : 4:2:0
Битовая глубина : 8 бит
Тип развёртки : Прогрессивная
Бит/(Пиксели*Кадры) : 0.294
Размер потока : 9,33 Гбайт (71%)
Заголовок : Война Харта (2002)
Библиотека кодирования : x264 core 119 r2106 07efeb4
Настройки программы : cabac=1 / ref=5 / deblock=1:-3:-3 / analyse=0x3:0x133 / me=tesa / subme=10 / psy=1 / psy_rd=1.05:0.00 / mixed_ref=1 / me_range=32 / chroma_me=1 / trellis=2 / 8x8dct=1 / cqm=0 / deadzone=21,11 / fast_pskip=0 / chroma_qp_offset=-2 / threads=12 / sliced_threads=0 / nr=0 / decimate=0 / interlaced=0 / bluray_compat=0 / constrained_intra=0 / bframes=6 / b_pyramid=2 / b_adapt=2 / b_bias=0 / direct=3 / weightb=1 / open_gop=0 / weightp=2 / keyint=250 / keyint_min=23 / scenecut=40 / intra_refresh=0 / rc_lookahead=60 / rc=2pass / mbtree=1 / bitrate=11000 / ratetol=1.0 / qcomp=0.75 / qpmin=0 / qpmax=69 / qpstep=4 / cplxblur=20.0 / qblur=0.5 / vbv_maxrate=50000 / vbv_bufsize=62500 / nal_hrd=none / ip_ratio=1.40 / aq=1:0.70
Язык : English
Default : Да
Forced : Нет
Аудио #1
Идентификатор : 2
Формат : AC-3
Формат/Информация : Audio Coding 3
Параметр Endianness формата : Big
Идентификатор кодека : A_AC3
Продолжительность : 2 ч. 4 м.
Вид битрейта : Постоянный
Битрейт : 448 Кбит/сек
Каналы : 6 каналов
Расположение каналов : Front: L C R, Side: L R, LFE
Частота : 48,0 КГц
Частота кадров : 31,250 кадров/сек (1536 SPF)
Битовая глубина : 16 бит
Метод сжатия : С потерями
Размер потока : 400 Мбайт (3%)
Заголовок : MVO, R5
Язык : Russian
Default : Да
Forced : Нет
Аудио #2
Идентификатор : 3
Формат : AC-3
Формат/Информация : Audio Coding 3
Параметр Endianness формата : Big
Идентификатор кодека : A_AC3
Продолжительность : 2 ч. 4 м.
Вид битрейта : Постоянный
Битрейт : 192 Кбит/сек
Каналы : 2 канала
Расположение каналов : Front: L R
Частота : 48,0 КГц
Частота кадров : 31,250 кадров/сек (1536 SPF)
Битовая глубина : 16 бит
Метод сжатия : С потерями
Размер потока : 171 Мбайт (1%)
Заголовок : DVO, Лазер Видео
Язык : Russian
Default : Нет
Forced : Нет
Аудио #3
Идентификатор : 4
Формат : AC-3
Формат/Информация : Audio Coding 3
Параметр Endianness формата : Big
Идентификатор кодека : A_AC3
Продолжительность : 2 ч. 4 м.
Вид битрейта : Постоянный
Битрейт : 448 Кбит/сек
Каналы : 6 каналов
Расположение каналов : Front: L C R, Side: L R, LFE
Частота : 48,0 КГц
Частота кадров : 31,250 кадров/сек (1536 SPF)
Битовая глубина : 16 бит
Метод сжатия : С потерями
Размер потока : 400 Мбайт (3%)
Заголовок : MVO
Язык : Russian
Default : Нет
Forced : Нет
Аудио #4
Идентификатор : 5
Формат : AC-3
Формат/Информация : Audio Coding 3
Параметр Endianness формата : Big
Идентификатор кодека : A_AC3
Продолжительность : 2 ч. 4 м.
Вид битрейта : Постоянный
Битрейт : 384 Кбит/сек
Каналы : 6 каналов
Расположение каналов : Front: L C R, Side: L R, LFE
Частота : 48,0 КГц
Частота кадров : 31,250 кадров/сек (1536 SPF)
Битовая глубина : 16 бит
Метод сжатия : С потерями
Размер потока : 343 Мбайт (3%)
Заголовок : VO
Язык : Russian
Default : Нет
Forced : Нет
Аудио #5
Идентификатор : 6
Формат : AC-3
Формат/Информация : Audio Coding 3
Параметр Endianness формата : Big
Идентификатор кодека : A_AC3
Продолжительность : 2 ч. 4 м.
Вид битрейта : Постоянный
Битрейт : 640 Кбит/сек
Каналы : 6 каналов
Расположение каналов : Front: L C R, Side: L R, LFE
Частота : 48,0 КГц
Частота кадров : 31,250 кадров/сек (1536 SPF)
Битовая глубина : 16 бит
Метод сжатия : С потерями
Размер потока : 571 Мбайт (4%)
Заголовок : AVO, Е. Рудой
Язык : Russian
Default : Нет
Forced : Нет
Аудио #6
Идентификатор : 7
Формат : AC-3
Формат/Информация : Audio Coding 3
Параметр Endianness формата : Big
Идентификатор кодека : A_AC3
Продолжительность : 2 ч. 4 м.
Вид битрейта : Постоянный
Битрейт : 192 Кбит/сек
Каналы : 2 канала
Расположение каналов : Front: L R
Частота : 48,0 КГц
Частота кадров : 31,250 кадров/сек (1536 SPF)
Битовая глубина : 16 бит
Метод сжатия : С потерями
Размер потока : 171 Мбайт (1%)
Заголовок : MVO, K1
Язык : Ukrainian
Default : Нет
Forced : Нет
Аудио #7
Идентификатор : 8
Формат : AC-3
Формат/Информация : Audio Coding 3
Параметр Endianness формата : Big
Идентификатор кодека : A_AC3
Продолжительность : 2 ч. 4 м.
Вид битрейта : Постоянный
Битрейт : 192 Кбит/сек
Каналы : 2 канала
Расположение каналов : Front: L R
Частота : 48,0 КГц
Частота кадров : 31,250 кадров/сек (1536 SPF)
Битовая глубина : 16 бит
Метод сжатия : С потерями
Размер потока : 171 Мбайт (1%)
Заголовок : MVO, AMC
Язык : Ukrainian
Default : Нет
Forced : Нет
Аудио #8
Идентификатор : 9
Формат : DTS
Формат/Информация : Digital Theater Systems
Режим : 16
Параметр Endianness формата : Big
Идентификатор кодека : A_DTS
Продолжительность : 2 ч. 4 м.
Вид битрейта : Постоянный
Битрейт : 1509 Кбит/сек
Каналы : 6 каналов
Расположение каналов : Front: L C R, Side: L R, LFE
Частота : 48,0 КГц
Частота кадров : 93,750 кадра/сек (512 SPF)
Битовая глубина : 24 бит
Метод сжатия : С потерями
Размер потока : 1,32 Гбайт (10%)
Заголовок : Original
Язык : English
Default : Нет
Forced : Нет
Текст #1
Идентификатор : 10
Формат : UTF-8
Идентификатор кодека : S_TEXT/UTF8
Идентификатор кодека/Информация : UTF-8 Plain Text
Язык : Russian
Default : Нет
Forced : Нет
Текст #2
Идентификатор : 11
Формат : UTF-8
Идентификатор кодека : S_TEXT/UTF8
Идентификатор кодека/Информация : UTF-8 Plain Text
Язык : Ukrainian
Default : Нет
Forced : Нет
Текст #3
Идентификатор : 12
Формат : UTF-8
Идентификатор кодека : S_TEXT/UTF8
Идентификатор кодека/Информация : UTF-8 Plain Text
Язык : English
Default : Нет
Forced : Нет
Меню
00:00:00.000 : en:Main Title/Priviledge
00:03:15.529 : en:Ambush
00:05:53.185 : en:Interrogation
00:08:13.117 : en:Transport
00:10:37.804 : en:POW
00:15:07.532 : en:Behind the Gates
00:19:37.093 : en:Questioning
00:25:44.877 : en:New Barracks
00:28:38.675 : en:More Prisoners
00:32:28.280 : en:Crowded House
00:35:14.487 : en:Bread WInners
00:40:18.750 : en:Spiked
00:44:48.978 : en:Lost Transmission
00:47:39.857 : en:Crash Landing
00:50:23.229 : en:Liar
00:53:04.556 : en:Crime Scene
00:57:49.675 : en:Railroaded
01:00:14.319 : en:Acting Attorney
01:05:07.529 : en:Rigged Trial
01:08:45.037 : en:Surprise Assistance
01:13:43.711 : en:Called Out
01:17:10.709 : en:Colonel to Colonel
01:21:45.901 : en:Smudges
01:25:09.521 : en:Lt. Scott Speaks Up
01:28:16.332 : en:Colonel on the Stand
01:34:11.187 : en:Discovery
01:38:26.067 : en:Case Solved
01:41:07.979 : en:Honor
01:45:51.762 : en:Closing Arguments
01:52:06.386 : en:Sacrifices
01:59:13.938 : en:Deep Understanding
02:00:02.028 : en:End Credits
x264 [info]: frame I:1507 Avg QP:15.66 size: 140008
x264 [info]: frame P:34708 Avg QP:17.15 size: 86351
x264 [info]: frame B:143365 Avg QP:18.70 size: 49413



   Похожие торренты   Торрент   Размер 
В этой теме нет новых непрочитанных сообщений. Война Харта / Hart's War (2002) BDRip от HQCLUB

69 | 4

2.18 ГБ

В этой теме нет новых непрочитанных сообщений. Война Харта / Hart's War (2002) BDRip от HQ-ViDEO

1 | 2

2.19 ГБ

В этой теме нет новых непрочитанных сообщений. Война Харта / Hart's War (2002) BDRip от HQCLUB

11 | 3

2.18 ГБ

В этой теме нет новых непрочитанных сообщений. Война Харта / Hart's War (2002) BDRip от alldown | КПК

0 | 5

907.64 МБ

В этой теме нет новых непрочитанных сообщений. Война Харта / Hart's War (2002) BDRip от HELLYWOOD

0 | 3

2.57 ГБ

В этой теме нет новых непрочитанных сообщений. Война Харта / Hart's War (2002) BDRip 720p | P, P2, P1, A

4 | 0

7.53 ГБ

В этой теме нет новых непрочитанных сообщений. Война Харта / Hart's War (2002) BDRip-AVC от NovaLan

3 | 3

2.73 ГБ




Вы не можете начинать темы
Вы не можете отвечать на сообщения
Вы не можете редактировать свои сообщения
Вы не можете удалять свои сообщения
Вы не можете добавлять вложения

Перейти:  
Для Мосгорсуда, Роскомнадзора и рекламодателей: mosgorsud-torrent[собачка]yandex.ru
 Вход
ppkBB3cker v.2 © 2008-2014 @ PPK
[ Time : 0.045s | 19 Queries | GZIP : Off ]

cron