img image001 image001 image001 image001 image001 image001 image001 image001 image001 image001 image001 image001 image001 image001 image001

Planets Sun Sun Sun
Статистика раздачи
Автор: Nickolas3434 | Размер: 8.93 ГБ | Добавлен: 03 дек 2017
Раздают: 3    Качают: 1
Скачать торрент
Скачать торрент
Описание торрента

СообщениеДобавлено: 03 дек 2017 

Информация о фильме
Название: Что случилось с Бэби Джейн?
Оригинальное название: What Ever Happened to Baby Jane?
Год выхода: 1962
Жанр: Ужасы, триллер, драма
Режиссер: Роберт Олдрич
В ролях: Бетт Дэвис, Джоан Кроуфорд, Виктор Буоно, Мэйди Норман, Анна Ли, Марджори Беннетт, Барбара Мэрилл, Энн Бартон, Дэйв Уиллок, Роберт Корнтуэйт
О фильме:
В 20-х годах прошлого века маленькая Джейн Хадсон выступала в мюзик-холле. Девочка имела большой успех у публики. На ее деньги жили родители и сестра Бланш, которая вынуждена была скрывать зависть и раздражение от успеха сестры. В 30-х годах ситуация коренным образом меняется. Бланш становится очень популярной голливудской актрисой, в то время, как звезда малышки Джейн начинает затухать.

Страна: США
Студия: Associates & Aldrich Company, The
Продолжительность: 02:13:40
Перевод: Профессиональный (многоголосый, закадровый) ГТРК Культура
Файл
Кодек: x264
Качество: BDRip 1080p
Видео: MPEG-4 AVC, 8599 Кбит/с, 1920x1080, 23.976 кадр/с
Звук:
Аудио#1: Russian AC3, 48.0 khz, 2 ch, 192 kbps - MVO, [ГТРК Культура]
Аудио#2: English DTS, 48.0 khz, 1 ch, 768 kbps - Оригинал (английский)
Субтитры: Русские, английские (SDH)
Сэмпл: скачать
General
Unique ID : 196764019728988631373685984981023530525 (0x94075F2B7E4CD6AC82B556F7283D1E1D)
Complete name : I:What.Ever.Happened.to.Baby.Jane.1962.P.BDRip.1080p.x264.Rus.Eng.mkv
Format : Matroska
Format version : Version 4 / Version 2
File size : 8.93 GiB
Duration : 2 h 13 min
Overall bit rate : 9 564 kb/s
Encoded date : UTC 2017-12-02 16:16:01
Writing application : mkvmerge v8.3.0 ('Over the Horizon') 32bit
Writing library : libebml v1.3.1 + libmatroska v1.4.2
Attachments : poster.jpg
Video
ID : 1
Format : AVC
Format/Info : Advanced Video Codec
Format profile : [email protected]
Format settings, CABAC : Yes
Format settings, ReFrames : 4 frames
Codec ID : V_MPEG4/ISO/AVC
Duration : 2 h 13 min
Bit rate : 8 599 kb/s
Width : 1 920 pixels
Height : 1 080 pixels
Display aspect ratio : 16:9
Frame rate mode : Constant
Frame rate : 23.976 (24000/1001) FPS
Color space : YUV
Chroma subsampling : 4:2:0
Bit depth : 8 bits
Scan type : Progressive
Bits/(Pixel*Frame) : 0.173
Stream size : 8.03 GiB (90%)
Writing library : x264 core 125 r2208 d9d2288
Encoding settings : cabac=1 / ref=4 / deblock=1:0:0 / analyse=0x3:0x113 / me=umh / subme=8 / psy=1 / psy_rd=1.00:0.00 / mixed_ref=1 / me_range=16 / chroma_me=1 / trellis=1 / 8x8dct=1 / cqm=0 / deadzone=21,11 / fast_pskip=1 / chroma_qp_offset=-2 / threads=12 / lookahead_threads=2 / sliced_threads=0 / nr=0 / decimate=1 / interlaced=0 / bluray_compat=0 / constrained_intra=0 / bframes=3 / b_pyramid=2 / b_adapt=2 / b_bias=0 / direct=3 / weightb=1 / open_gop=0 / weightp=2 / keyint=240 / keyint_min=24 / scenecut=40 / intra_refresh=0 / rc_lookahead=50 / rc=2pass / mbtree=1 / bitrate=8599 / ratetol=1.0 / qcomp=0.60 / qpmin=0 / qpmax=69 / qpstep=4 / cplxblur=20.0 / qblur=0.5 / ip_ratio=1.40 / aq=1:1.00
Language : English
Default : Yes
Forced : No
Audio #1
ID : 2
Format : AC-3
Format/Info : Audio Coding 3
Mode : Dolby Digital
Format settings, Endianness : Big
Codec ID : A_AC3
Duration : 2 h 13 min
Bit rate mode : Constant
Bit rate : 192 kb/s
Channel(s) : 2 channels
Channel positions : Front: L R
Sampling rate : 48.0 kHz
Frame rate : 31.250 FPS (1536 spf)
Bit depth : 16 bits
Compression mode : Lossy
Stream size : 184 MiB (2%)
Title : Профессиональный (многоголосый, закадровый) ГТРК Культура
Language : Russian
Service kind : Complete Main
Default : Yes
Forced : No
Audio #2
ID : 3
Format : DTS
Format/Info : Digital Theater Systems
Mode : 16
Format settings, Endianness : Big
Codec ID : A_DTS
Duration : 2 h 13 min
Bit rate mode : Constant
Bit rate : 768 kb/s
Channel(s) : 1 channel
Channel positions : Front: C
Sampling rate : 48.0 kHz
Frame rate : 93.750 FPS (512 spf)
Bit depth : 24 bits
Compression mode : Lossy
Stream size : 734 MiB (8%)
Title : Original
Language : English
Default : No
Forced : No
Text #1
ID : 4
Format : UTF-8
Codec ID : S_TEXT/UTF8
Codec ID/Info : UTF-8 Plain Text
Duration : 2 h 13 min
Bit rate : 69 b/s
Count of elements : 1153
Stream size : 67.9 KiB (0%)
Language : Russian
Default : No
Forced : No
Text #2
ID : 5
Format : UTF-8
Codec ID : S_TEXT/UTF8
Codec ID/Info : UTF-8 Plain Text
Duration : 2 h 13 min
Bit rate : 48 b/s
Count of elements : 1338
Stream size : 47.6 KiB (0%)
Language : English
Default : No
Forced : No
Menu
00:00:00.000 : en:00:00:00.000
00:06:39.691 : en:00:06:39.691
00:10:52.861 : en:00:10:52.861
00:13:50.705 : en:00:13:50.705
00:17:23.251 : en:00:17:23.251
00:19:40.805 : en:00:19:40.805
00:23:45.758 : en:00:23:45.758
00:28:47.559 : en:00:28:47.559
00:32:52.554 : en:00:32:52.554
00:36:45.829 : en:00:36:45.829
00:40:50.365 : en:00:40:50.365
00:49:00.563 : en:00:49:00.563
00:53:28.497 : en:00:53:28.497
00:58:52.779 : en:00:58:52.779
01:00:58.738 : en:01:00:58.738
01:03:26.720 : en:01:03:26.720
01:06:02.083 : en:01:06:02.083
01:12:27.260 : en:01:12:27.260
01:14:04.190 : en:01:14:04.190
01:17:07.832 : en:01:17:07.832
01:21:30.094 : en:01:21:30.094
01:23:52.277 : en:01:23:52.277
01:28:31.473 : en:01:28:31.473
01:31:05.627 : en:01:31:05.627
01:32:43.266 : en:01:32:43.266
01:39:32.300 : en:01:39:32.300
01:43:05.304 : en:01:43:05.304
01:47:28.942 : en:01:47:28.942
01:49:03.829 : en:01:49:03.829
01:54:10.052 : en:01:54:10.052
01:55:25.836 : en:01:55:25.836
02:01:16.478 : en:02:01:16.478
02:03:40.121 : en:02:03:40.121
02:06:33.419 : en:02:06:33.419
02:10:27.611 : en:02:10:27.611



   Похожие торренты   Торрент   Размер 
В этой теме нет новых непрочитанных сообщений. Что случилось с Бэби Джейн? / What Ever Happened to Baby Jane? (1962) BDRip от HQCLUB

5 | 3

2.18 ГБ

В этой теме нет новых непрочитанных сообщений. Это случилось с Джейн / It Happened to Jane (1959) DVDRip | L1

1 | 3

1.37 ГБ

В этой теме нет новых непрочитанных сообщений. Беглянка Джейн / Сбежавшая Джейн / Jane Doe / Runaway Jane (2001) DVDRip

1 | 3

700.93 МБ

В этой теме нет новых непрочитанных сообщений. Джейн Эйр / Jane Eyre (2011) BDRip 1080p

58 | 4

9.12 ГБ

В этой теме нет новых непрочитанных сообщений. Джейн берет ружье / Jane Got a Gun (2015) BDRip 1080p | Line

409 | 24

7.79 ГБ

В этой теме нет новых непрочитанных сообщений. Джейн берет ружье / Jane Got a Gun (2016) BDRip 1080p от HDClub | D

54 | 4

11.2 ГБ

В этой теме нет новых непрочитанных сообщений. Бэби-бум / Baby Boom (1987) WEBRip 1080p | P

0 | 0

11.29 ГБ




Вы не можете начинать темы
Вы не можете отвечать на сообщения
Вы не можете редактировать свои сообщения
Вы не можете удалять свои сообщения
Вы не можете добавлять вложения

Перейти:  
Для Мосгорсуда, Роскомнадзора и рекламодателей: mosgorsud-torrent[собачка]yandex.ru
 Вход
ppkBB3cker v.2 © 2008-2014 @ PPK
[ Time : 0.053s | 18 Queries | GZIP : Off ]

cron