img image001 image001 image001 image001 image001 image001 image001 image001 image001 image001 image001 image001 image001 image001 image001

Planets Sun Sun Sun
Статистика раздачи
Автор: Nickolas3434 | Размер: 8.55 ГБ | Добавлен: 03 дек 2017
Раздают: 10    Качают: 3
Скачать торрент
Скачать торрент
Описание торрента

СообщениеДобавлено: 03 дек 2017 

Информация о фильме
Название: В погоне за Папи
Оригинальное название: Chasing Papi
Год выхода: 2003
Жанр: мелодрама, комедия
Режиссер: Линда Мендоса
В ролях: Роселин Санчес, София Вергара, Джэси Веласкес, Эдуардо Верастеги, Лиза Видал, Фредди Родригес, Д.Л. Хьюли, Мария Кончита Алонсо, Вальтер Меркадо, Карлос Понсе
О фильме:
Красавец Томас «Папи» Фуэнтес — сотрудник рекламного агентство — влюблен сильно и по-настоящему… в трех шикарных девушек, проживающих в трех разных городах: жеманная Патрисия — из Нью-Йорка, прекрасная Лорена — из Чикаго и сексапильная Сиси — из Майами. И вот, все три красотки приезжают в Лос-Анджелес, чтобы сделать сюрприз Папи.

Страна: США
Студия: Fox 2000 Pictures, Robert Simonds Productions, Spirit Dance Entertainment
Продолжительность: 01:20:18
Перевод: Профессиональный многоголосный, закадровый
Файл
Кодек: H.264
Качество: WEB-DL 1080p
Видео: AVC, 1920x1080 (16:9), 23.976 fps ~ 14 Mbps
Звук:
AC3, 48 KHz, 6 ch ~ 448 Kb/s (русский)
E-AC3, 48 KHz, 6 ch ~ 640 Kb/s (английский)
Субтитры: Русские, английские
Общее
Уникальный идентификатор : 204139174140364326732094850823773717201 (0x9993C65B4147C021B3791593C75F82D1)
Полное имя : F:Chasing.Papi.2003.1080p.Amazon.mkv
Формат : Matroska
Версия формата : Version 2
Размер файла : 8,55 Гбайт
Продолжительность : 1 ч. 20 м.
Режим общего битрейта : Переменный
Общий поток : 15,2 Мбит/сек
Название фильма : Chasing Papi (2003)
Дата кодирования : UTC 2017-12-02 13:14:46
Программа кодирования : mkvmerge v5.4.0 ('Piper') built on Mar 10 2012 13:34:39
Библиотека кодирования : libebml v1.2.3 + libmatroska v1.3.0
DURATION : 01:17:10.249000000
NUMBER_OF_FRAMES : 1196
NUMBER_OF_BYTES : 48517
_STATISTICS_WRITING_APP : mkvmerge v13.0.0 ('The Juggler') 64bit
_STATISTICS_WRITING_DATE_UTC : 2017-11-27 07:59:09
_STATISTICS_TAGS : BPS DURATION NUMBER_OF_FRAMES NUMBER_OF_BYTES
Видео
Идентификатор : 1
Формат : AVC
Формат/Информация : Advanced Video Codec
Профиль формата : [email protected]
Параметр CABAC формата : Да
Параметр ReFrames формата : 4 кадра
Идентификатор кодека : V_MPEG4/ISO/AVC
Продолжительность : 1 ч. 20 м.
Вид битрейта : Переменный
Битрейт : 13,9 Мбит/сек
Максимальный битрейт : 15,0 Мбит/сек
Ширина : 1920 пикселей
Высота : 1080 пикселей
Соотношение сторон : 16:9
Частота кадров : 23,976 кадра/сек
Цветовое пространство : YUV
Субдискретизация насыщенности : 4:2:0
Битовая глубина : 8 бит
Тип развёртки : Прогрессивная
Бит/(Пиксели*Кадры) : 0.279
Размер потока : 7,77 Гбайт (91%)
Default : Да
Forced : Нет
Основные цвета : BT.709-5, BT.1361, IEC 61966-2-4, SMPTE RP177
Характеристики трансфера : BT.709-5, BT.1361
Коэффициенты матрицы : BT.709-5, BT.1361, IEC 61966-2-4 709, SMPTE RP177
Аудио #1
Идентификатор : 2
Формат : AC-3
Формат/Информация : Audio Coding 3
Расширение режима : CM (complete main)
Идентификатор кодека : A_AC3
Продолжительность : 1 ч. 20 м.
Вид битрейта : Постоянный
Битрейт : 448 Кбит/сек
Каналы : 6 каналов
Расположение каналов : Front: L C R, Side: L R, LFE
Частота : 48,0 КГц
Битовая глубина : 16 бит
Метод сжатия : С потерями
Размер потока : 257 Мбайт (3%)
Заголовок : AC3, 6 ch, 448 Kbps, MVO
Язык : Russian
Default : Да
Forced : Нет
Аудио #2
Идентификатор : 3
Формат : E-AC-3
Формат/Информация : Audio Coding 3
Идентификатор кодека : A_EAC3
Продолжительность : 1 ч. 20 м.
Вид битрейта : Постоянный
Битрейт : 640 Кбит/сек
Каналы : 6 каналов
Расположение каналов : Front: L C R, Side: L R, LFE
Частота : 48,0 КГц
Метод сжатия : С потерями
Размер потока : 368 Мбайт (4%)
Язык : English
Default : Нет
Forced : Нет
Текст #1
Идентификатор : 4
Формат : UTF-8
Идентификатор кодека : S_TEXT/UTF8
Идентификатор кодека/Информация : UTF-8 Plain Text
Заголовок : rus_sub
Язык : Russian
Default : Да
Forced : Нет
Текст #2
Идентификатор : 5
Формат : UTF-8
Идентификатор кодека : S_TEXT/UTF8
Идентификатор кодека/Информация : UTF-8 Plain Text
Язык : English
Default : Нет
Forced : Нет




   Похожие торренты   Торрент   Размер 
В этой теме нет новых непрочитанных сообщений. В погоне за Папи / Chasing Papi (2003) WEB-DL 720p | P

13 | 3

3.13 ГБ

В этой теме нет новых непрочитанных сообщений. В погоне за Папи / Chasing Papi (2003) DVD5 R5 от Youtracker | P

3 | 4

4.07 ГБ

В этой теме нет новых непрочитанных сообщений. В погоне за Папи / Chasing Papi (2003) DVDRip-AVC от Youtracker | P

1 | 4

1.46 ГБ

В этой теме нет новых непрочитанных сообщений. В погоне за Папи / Chasing Papi (2003) WEB-DLRip от ExKinoRay | P

17 | 0

1.46 ГБ

В этой теме нет новых непрочитанных сообщений. В погоне за Папи / Chasing Papi (2003) WEB-DLRip от ExKinoRay | P

17 | 4

746.14 МБ

В этой теме нет новых непрочитанных сообщений. В погоне за Папи / Chasing Papi (2003) DVDRip от Youtracker | P

3 | 14

1.46 ГБ

В этой теме нет новых непрочитанных сообщений. В погоне за Папи / Chasing Papi (2003) DVDRip от Youtracker | P

1 | 6

744.96 МБ




Вы не можете начинать темы
Вы не можете отвечать на сообщения
Вы не можете редактировать свои сообщения
Вы не можете удалять свои сообщения
Вы не можете добавлять вложения

Перейти:  
Для Мосгорсуда, Роскомнадзора и рекламодателей: mosgorsud-torrent[собачка]yandex.ru
 Вход
ppkBB3cker v.2 © 2008-2014 @ PPK
[ Time : 0.047s | 19 Queries | GZIP : Off ]

cron