img image001 image001 image001 image001 image001 image001 image001 image001 image001 image001 image001 image001 image001 image001 image001

Planets Sun Sun Sun
Статистика раздачи
Автор: Nickolas3434 | Размер: 2.18 ГБ | Добавлен: 03 дек 2017
Раздают: 6    Качают: 4
Скачать торрент
Скачать торрент
Описание торрента

СообщениеДобавлено: 03 дек 2017 




Информация о фильме
Название: Приветствие джаггера
Оригинальное название: The Salute of the Jugger / The Blood of Heroes
Год выхода: 1989
Жанр: фантастика, боевик
Режиссер: Дэвид Уэбб Пиплз
В ролях: Рутгер Хауэр, Ричард Нортон, Делрой Линдо, Анна Катарина, Винсент Д`Онофрио, Ганди МакИнтайр, Джастин Монжо, Аарон Мартин, Джоан Чен, Кэйси Хуанг, Нгуен Дин, Джон Биро, Брайан Коули, Джино Терранова, Сесилия Вонг, Джон Самаха, Макс Фэйрчайлд, Хью Кияс-Бёрн, Бейзил Кларк, Дэйл Браун, Даг Милинг
О фильме:
Действие фильма разворачивается в следующем столетии после опустошительной войны. Единственным развлечением выживших после ядерной катастрофы людей стали жестокие соревнования — нечто среднее между рыцарскими турнирами и боями гладиаторов. Команда беспощадного Рутгера Хауэра рвется в высшую лигу, где выигрыш на самом деле является вопросом жизни и смерти.

Страна: США, Австралия
Студия: Kings Road Entertainment
Продолжительность: 01:27:20
Перевод: Профессиональный (многоголосый)
Субтитры: Английские
Файл
Формат: MKV
Качество: BDRip-AVC [The Salute Of The Jugger.1989.BDRemux.1080i]
Видео: [email protected], 828х634, ~3124 Kbps, 25 fps
Аудио: AC3, ~448 Kbps, 6 ch


General
Unique ID : 174020853970964580166067890854331775295 (0x82EB328640FF75BC3074EBF2D149793F)
Complete name : D:КИНОПриветствие джаггера.(1989).BDRIP-AVC.[-=DoMiNo=-].mkv
Format : Matroska
Format version : Version 4 / Version 2
File size : 2.18 GiB
Duration : 1 h 27 min
Overall bit rate : 3 574 kb/s
Movie name : Приветствие джаггера
Deion : Действие фильма разворачивается в следующем столетии после опустошительной войны. Единственным развлечением выживших после ядерной катастрофы людей стали жестокие соревнования — нечто среднее между рыцарскими турнирами и боями гладиаторов. Команда беспощадного Рутгера Хауэра рвется в высшую лигу, где выигрыш на самом деле является вопросом жизни и смерти.
Writing application : XviD4PSP 7.0.428 DAILY
Writing library : Lavf57.71.100
ErrorDetectionType : Per level 1
Attachments : poster.jpg
COMPOSER : Тодд Бёкельхейд
COUNTRY : Австралия, США
DATE : 1989
DIRECTOR : Дэвид Уэбб Пиплз
ENCODING_INFO : MATROSKA,WEBM > MKV Пользовательский / H264 > X264 VBR-2P 3124kbps Пользовательский / AC3 > COPY Безопасное
GENRE : фантастика, боевик, спорт
HD_VIDEO : 1
IMDB_RATING : 6.50
ITUNEXTC : mpaa|R|400|
Language : und
MEDIA_TYPE : 9
ORIGINAL_TITLE : The Blood of Heroes
PRODUCER : Чарльз Ровен, Брайан Розен
RATING : 6.959
WRITER : Дэвид Уэбб Пиплз
Video
ID : 1
Format : AVC
Format/Info : Advanced Video Codec
Format profile : [email protected]
Format settings : CABAC / 11 Ref Frames
Format settings, CABAC : Yes
Format settings, ReFrames : 11 frames
Codec ID : V_MPEG4/ISO/AVC
Duration : 1 h 27 min
Bit rate : 3 124 kb/s
Width : 828 pixels
Height : 634 pixels
Display aspect ratio : 4:3
Frame rate mode : Constant
Frame rate : 25.000 FPS
Color space : YUV
Chroma subsampling : 4:2:0
Bit depth : 8 bits
Scan type : Progressive
Bits/(Pixel*Frame) : 0.238
Stream size : 1.86 GiB (85%)
Writing library : x264 core 152 r2851M ba24899
Encoding settings : cabac=1 / ref=11 / deblock=1:-3:-3 / analyse=0x3:0x133 / me=umh / subme=11 / psy=1 / psy_rd=1.00:0.05 / mixed_ref=1 / me_range=32 / chroma_me=1 / trellis=2 / 8x8dct=1 / cqm=0 / deadzone=21,11 / fast_pskip=0 / chroma_qp_offset=-3 / threads=5 / lookahead_threads=1 / sliced_threads=0 / nr=0 / decimate=1 / interlaced=0 / bluray_compat=0 / constrained_intra=0 / bframes=12 / b_pyramid=2 / b_adapt=2 / b_bias=0 / direct=3 / weightb=1 / open_gop=0 / weightp=2 / keyint=250 / keyint_min=25 / scenecut=40 / intra_refresh=0 / rc=2pass / mbtree=0 / bitrate=3124 / ratetol=1.0 / qcomp=0.70 / qpmin=0 / qpmax=69 / qpstep=4 / cplxblur=20.0 / qblur=0.5 / ip_ratio=1.40 / pb_ratio=1.30 / aq=1:1.00
Default : Yes
Forced : No
Color range : Limited
Color primaries : BT.709
Transfer characteristics : BT.709
Matrix coefficients : BT.709
Audio
ID : 2
Format : AC-3
Format/Info : Audio Coding 3
Codec ID : A_AC3
Duration : 1 h 27 min
Bit rate mode : Constant
Bit rate : 448 kb/s
Channel(s) : 6 channels
Channel positions : Front: L C R, Side: L R, LFE
Sampling rate : 48.0 kHz
Frame rate : 31.250 FPS (1536 SPF)
Bit depth : 16 bits
Compression mode : Lossy
Stream size : 280 MiB (13%)
Title : MVO
Language : Russian
Service kind : Complete Main
Default : Yes
Forced : No
Text
ID : 3
Format : UTF-8
Codec ID : S_TEXT/UTF8
Codec ID/Info : UTF-8 Plain Text
Title : Full
Language : English
Default : Yes
Forced : No





   Похожие торренты   Торрент   Размер 
В этой теме нет новых непрочитанных сообщений. Приветствие джаггера / The Salute of the Jugger / The Blood of Heroes (1989) BDRip-AVC | P

5 | 0

746.06 МБ

В этой теме нет новых непрочитанных сообщений. Приветствие джаггера / The Salute of the Jugger / The Blood of Heroes (1989) BDRip 720р) от KORSAR | P, A

7 | 3

5.01 ГБ

В этой теме нет новых непрочитанных сообщений. Приветствие джаггера / The Salute of the Jugger / The Blood of Heroes (1989) BDRip-HEVC 1080p | P

22 | 1

3.56 ГБ

В этой теме нет новых непрочитанных сообщений. Приветствие Джаггера / Кровь героев / The Salute Of The Jugger / The blood (1989) DVDRip от Leon-masl | P, A

185 | 28

1.54 ГБ

В этой теме нет новых непрочитанных сообщений. Приветствие Джаггера / The Salute of the Jugger (1989) BDRemux 1080i | P, A

5 | 2

15.89 ГБ

В этой теме нет новых непрочитанных сообщений. Приветствие Джаггера / The Salute of the Jugger (1989) DVDRip от Werdog

5 | 1

1.37 ГБ

В этой теме нет новых непрочитанных сообщений. Приветствие джаггера / The Blood of Heroes (1989) BDRip от Koenig

24 | 3

1.45 ГБ




Вы не можете начинать темы
Вы не можете отвечать на сообщения
Вы не можете редактировать свои сообщения
Вы не можете удалять свои сообщения
Вы не можете добавлять вложения

Перейти:  
Для Мосгорсуда, Роскомнадзора и рекламодателей: mosgorsud-torrent[собачка]yandex.ru
 Вход
ppkBB3cker v.2 © 2008-2014 @ PPK
[ Time : 0.051s | 19 Queries | GZIP : Off ]

cron