img image001 image001 image001 image001 image001 image001 image001 image001 image001 image001 image001 image001 image001 image001 image001

Planets Sun Sun Sun
Статистика раздачи
Автор: Nickolas3434 | Размер: 14.09 ГБ | Добавлен: 16 сен 2017
Раздают: 101    Качают: 16
Скачать торрент
Скачать торрент
Описание торрента

СообщениеДобавлено: 16 сен 2017 

«Любовь — это все что угодно, только не скука»
Информация о фильме
Название: Он и Она
Оригинальное название: Mr & Mme Adelman
Год выхода: 2017
Жанр: Комедия, мелодрама
Режиссер: Николя Бедос
В ролях: Дория Тилье, Николя Бедос, Дени Подалидес, Антуан Гуи, Кристиана Милле, Пьер Ардити, Забу Брайтман, Жюльен Буасселье, Жак Ланг
О фильме:
Виктор — начинающий писатель, Сара — магистр в области классической литературы, их общая слабость — Джойс и Достоевский. Они были свободны и беспечны, но их случайная встреча в баре затянется на долгие 45 лет. Как справятся они с успехом, богатством и банальной скукой? Кто получит все, а кто останется в тени? История одной семьи, большой любви, на фоне переполненных солнцем бульваров Парижа.

Страна: Франция, Бельгия
Студия: A Plus Image DГ©veloppement 6, Canal+ [fr], France 2 Cinéma, Orange Studio
Продолжительность: 02:00:33
Перевод: Профессиональный (полное дублирование) | R5
Файл
Качество: BDRip 1080p
Формат: MKV
Кодек: MPEG-4 AVC
Видео: 1920x800 (2,40:1), 23.976 fps, MPEG-4 AVC ~ 14,8 Мbps avg, 0.401 bit/pixel
Аудио: АС3, 48,0 kHz, 6 ch, ~448.00.00 kbps avg | русский | Профессиональный (полное дублирование) | R5
Аудио: DTS, 48,0 kHz, 6 ch, ~1509.00 kbps avg | французский | Оригинал
Субтитры: Французские (форсированные)
Общее
Уникальный идентификатор : 211984578268479627141263769671089285897 (0x9F7ABEA4E46C377ABE2539995EC06B09)
Полное имя : Mr.Mme.Adelman.2017.1080p.Blu-ray.x264.Rus.Fre.mkv
Формат : Matroska
Версия формата : Version 4 / Version 2
Размер файла : 14,1 Гбайт
Продолжительность : 2 ч. 0 м.
Общий поток : 16,7 Мбит/сек
Дата кодирования : UTC 2017-09-14 15:25:31
Программа кодирования : mkvmerge v9.7.1 ('Pandemonium') 64bit
Библиотека кодирования : libebml v1.3.4 + libmatroska v1.4.5
Видео
Идентификатор : 1
Формат : AVC
Формат/Информация : Advanced Video Codec
Профиль формата : [email protected]
Параметр CABAC формата : Да
Параметр ReFrames формата : 5 кадров
Идентификатор кодека : V_MPEG4/ISO/AVC
Продолжительность : 2 ч. 0 м.
Битрейт : 14,8 Мбит/сек
Ширина : 1920 пикселей
Высота : 800 пикселей
Соотношение сторон : 2,40:1
Режим частоты кадров : Постоянный
Частота кадров : 23,976 (24000/1001) кадра/сек
Цветовое пространство : YUV
Субдискретизация насыщенности : 4:2:0
Битовая глубина : 8 бит
Тип развёртки : Прогрессивная
Бит/(Пиксели*Кадры) : 0.401
Размер потока : 12,4 Гбайт (88%)
Заголовок : Mr.Mme.Adelman.2017.1080p.Blu-ray.x264.Rus.Fre
Библиотека кодирования : x264 core 152 r2851+58 429492e t_mod_Custom [[email protected] X86]
Настройки программы : cabac=1 / ref=5 / deblock=1:-3:-3 / analyse=0x3:0x133 / me=umh / subme=11 / psy=1 / fade_compensate=0.00 / psy_rd=1.00:0.00 / mixed_ref=1 / me_range=48 / chroma_me=1 / trellis=2 / 8x8dct=1 / cqm=0 / deadzone=21,11 / fast_pskip=0 / chroma_qp_offset=-2 / threads=12 / lookahead_threads=2 / sliced_threads=0 / nr=0 / decimate=0 / interlaced=0 / bluray_compat=0 / constrained_intra=0 / fgo=0 / bframes=8 / b_pyramid=2 / b_adapt=2 / b_bias=0 / direct=3 / weightb=1 / open_gop=0 / weightp=2 / keyint=240 / keyint_min=23 / scenecut=40 / intra_refresh=0 / rc_lookahead=120 / rc=crf / mbtree=0 / crf=18.0000 / qcomp=0.65 / qpmin=0:0:0 / qpmax=69:69:69 / qpstep=4 / vbv_maxrate=62500 / vbv_bufsize=78125 / crf_max=0.0 / nal_hrd=none / filler=0 / ip_ratio=1.30 / pb_ratio=1.20 / aq=3:0.80 / aq-sensitivity=10.00 / aq-factor=1.00:1.00:1.00 / aq2=0 / aq3=0
Язык : French
Default : Да
Forced : Нет
Аудио #1
Идентификатор : 2
Формат : AC-3
Формат/Информация : Audio Coding 3
Параметр Endianness формата : Big
Идентификатор кодека : A_AC3
Продолжительность : 2 ч. 0 м.
Вид битрейта : Постоянный
Битрейт : 448 Кбит/сек
Каналы : 6 каналов
Расположение каналов : Front: L C R, Side: L R, LFE
Частота : 48,0 КГц
Частота кадров : 31,250 кадров/сек (1536 spf)
Битовая глубина : 16 бит
Метод сжатия : С потерями
Размер потока : 386 Мбайт (3%)
Заголовок : Лицензия [R5]
Язык : Russian
Default : Да
Forced : Нет
Аудио #2
Идентификатор : 3
Формат : DTS
Формат/Информация : Digital Theater Systems
Режим : 16
Параметр Endianness формата : Big
Идентификатор кодека : A_DTS
Продолжительность : 2 ч. 0 м.
Вид битрейта : Постоянный
Битрейт : 1509 Кбит/сек
Каналы : 6 каналов
Расположение каналов : Front: L C R, Side: L R, LFE
Частота : 48,0 КГц
Частота кадров : 93,750 кадра/сек (512 spf)
Битовая глубина : 24 бит
Метод сжатия : С потерями
Размер потока : 1,27 Гбайт (9%)
Заголовок : French DTS 1509kbps
Язык : French
Default : Нет
Forced : Нет
Текст
Идентификатор : 4
Формат : UTF-8
Идентификатор кодека : S_TEXT/UTF8
Идентификатор кодека/Информация : UTF-8 Plain Text
Продолжительность : 1 м. 27 с.
Битрейт : 29 бит/сек
ElementCount : 9
Размер потока : 325 байт (0%)
Заголовок : Forced
Язык : French
Default : Да
Forced : Да
Меню
00:00:00.000 : en:00:00:00.000
00:08:40.103 : en:00:08:40.103
00:17:25.461 : en:00:17:25.461
00:28:03.390 : en:00:28:03.390
00:37:41.968 : en:00:37:41.968
00:46:06.013 : en:00:46:06.013
00:52:09.418 : en:00:52:09.418
00:59:34.154 : en:00:59:34.154
01:06:54.594 : en:01:06:54.594
01:16:39.345 : en:01:16:39.345
01:25:00.053 : en:01:25:00.053
01:33:29.312 : en:01:33:29.312
01:40:07.126 : en:01:40:07.126
01:45:35.246 : en:01:45:35.246
01:51:12.541 : en:01:51:12.541
01:56:42.829 : en:01:56:42.829




   Похожие торренты   Торрент   Размер 
В этой теме нет новых непрочитанных сообщений. Он и Она / Mr & Mme Adelman (2017) BDRip | Лицензия

344 | 27

2.19 ГБ

В этой теме нет новых непрочитанных сообщений. Он и Она / Mr & Mme Adelman (2017) BDRip | Лицензия

300 | 33

1.46 ГБ

В этой теме нет новых непрочитанных сообщений. Он и Она / Mr & Mme Adelman (2017) BDRip-AVC от OlLanDGroup | Лицензия

178 | 2

1.46 ГБ

В этой теме нет новых непрочитанных сообщений. Он и Она / Mr & Mme Adelman (2017) WEB-DL 1080p | iTunes

1092 | 36

4.16 ГБ

В этой теме нет новых непрочитанных сообщений. Он и Она / Mr & Mme Adelman (2017) WEB-DLRip от Scarabey | iTunes

271 | 1

1.45 ГБ

В этой теме нет новых непрочитанных сообщений. Он и Она / Mr & Mme Adelman (2017) WEB-DLRip-AVC от Scarabey | iTunes

617 | 12

2.28 ГБ

В этой теме нет новых непрочитанных сообщений. Он и Она / Mr & Mme Adelman (2017) WEB-DLRip от Scarabey | iTunes

146 | 0

747.81 МБ




Вы не можете начинать темы
Вы не можете отвечать на сообщения
Вы не можете редактировать свои сообщения
Вы не можете удалять свои сообщения
Вы не можете добавлять вложения

Перейти:  
Для Мосгорсуда, Роскомнадзора и рекламодателей: mosgorsud-torrent[собачка]yandex.ru
 Вход
ppkBB3cker v.2 © 2008-2014 @ PPK
[ Time : 0.054s | 18 Queries | GZIP : Off ]

cron