img image001 image001 image001 image001 image001 image001 image001 image001 image001 image001 image001 image001 image001 image001 image001

Planets Sun Sun Sun
Статистика раздачи
Автор: Nickolas3434 | Размер: 3.08 ГБ | Добавлен: 04 дек 2017
Раздают: 4    Качают: 11
Скачать торрент
Скачать торрент
Описание торрента

СообщениеДобавлено: 04 дек 2017 

Информация о фильме
Название: Спецназ
Оригинальное название: S.W.A.T.
Год выхода: 2017
Жанр: Боевик, триллер, драма, криминал, приключения
Режиссер: Билл Джирхарт, Эгил Эгилссон, Джастин Лин
В ролях: Кенни Джонсон, Стефани Сигман, Шемар Мур, Дэвид Лим, Патрик Ст. Эсприт, Аарон Бледсо, Лина Эско, Луис Ферриньо мл., Джей Хэррингтон, Джим Гэррити и др.
О фильме:
Описание: Сериал повествует о том, как лейтенанту полицейского спецназа поручают возглавить отряд вышколенных профессионалов с крутым нравом и отсутствием щепетильности при выполнении заданий. Свежесформированная команда — последняя надежда городских властей на восстановление правопорядка в Лос-Анджелесе.

Страна: США, CBS Television Studios, MiddKid Productions, Original Film, Perfect Storm Entertainment
Продолжительность: ~00:45:00 серия
Перевод: Любительский (многоголосый закадровый) | OMSKBIRD records
Файл
Кодек: XviD
Качество: WEBRip
Видео: 720x400 (1.80:1), 23.976 fps, ~1800 kbps avg, 0.26 bit/pixel
Звук:
Аудио rus: AC3, 48 kHz, 2 ch, 192 Kbps | OmskBird
Субтитры: отсутствуют
Реклама: присутствует
Семпл
Релиз-группа: OmskBird
Перевод: Николай Исаков
Роли озвучивали: Павел Ярощик, Андрей Астров, Марина Гассан
Звукорежиссер: Павел Квентов
Постер: Ксения Просветова
General
Complete name : G:FilmsS.W.A.T.S01.WEBRip.OmskBirdS.W.A.T.S01E01.WEBRip.OmskBird.avi
Format : AVI
Format/Info : Audio Video Interleave
File size : 650 MiB
Duration : 45mn 23s
Overall bit rate : 2 002 Kbps
Writing application : VirtualDubMod 1.5.10.3 (build 2550/release)
Writing library : VirtualDubMod build 2550/release
Video
ID : 0
Format : MPEG-4 Visual
Format profile : Advanced [email protected]
Format settings, BVOP : 1
Format settings, QPel : No
Format settings, GMC : No warppoints
Format settings, Matrix : Default (MPEG)
Codec ID : XVID
Codec ID/Hint : XviD
Duration : 45mn 23s
Bit rate : 1 800 Kbps
Width : 720 pixels
Height : 400 pixels
Display aspect ratio : 16:9
Frame rate : 23.976 (23976/1000) fps
Color space : YUV
Chroma subsampling : 4:2:0
Bit depth : 8 bits
Scan type : Progressive
Compression mode : Lossy
Bits/(Pixel*Frame) : 0.261
Stream size : 585 MiB (90%)
Writing library : XviD 73
Audio
ID : 1
Format : AC-3
Format/Info : Audio Coding 3
Mode extension : CM (complete main)
Format settings, Endianness : Big
Codec ID : 2000
Duration : 45mn 23s
Bit rate mode : Constant
Bit rate : 192 Kbps
Channel(s) : 2 channels
Channel positions : Front: L R
Sampling rate : 48.0 KHz
Frame rate : 31.250 fps (1536 spf)
Compression mode : Lossy
Stream size : 62.3 MiB (10%)
Alignment : Split accross interleaves
Interleave, duration : 42 ms (1.00 video frame)
Interleave, preload duration : 500 ms

Внимание! Раздача ведётся путём добавления новых серий; при каждом добавлении создётся новый торрент. Чтобы начать докачку новой серии, пользователям необходимо сделать следующее:
Остановить скачивание.
Удалить старый торрент у себя из клиента (старые серии удалять не надо).
Скачать новый торрент и запустить его у себя в клиенте вместо старого, при этом указать клиенту путь в старую папку куда и должно происходить скачивание новых серий.
Ваш клиент при этом должен произвести хеширование (проверку) старой папки (если не производит сам - помогите ему сделать это), и будет докачивать только те серии которых у вас ещё нет. Старые серии при этом не удаляются, а продолжают раздаваться!
Eсли вы уже удалили старые серии, то предотвратить повторную закачку старых серий можно, отжав галочку в соответсвующих местах при запуске нового торрента. По возможности, желательно не удалять старые серии как можно дольше чтобы релизёр не столько продолжал раздавать старые серии, а смог сконцентрироваться на новых.

Релиз от: OmskBird



   Похожие торренты   Торрент   Размер 
В этой теме нет новых непрочитанных сообщений. Спецназ / S.W.A.T. [01x01-03 из 15] (2017) WEBRip | OMSKBIRD

0 | 0

1.87 ГБ

В этой теме нет новых непрочитанных сообщений. Спецназ / S.W.A.T. [01x01 из 15] (2017) WEBRip | OMSKBIRD

11 | 0

650 МБ

В этой теме нет новых непрочитанных сообщений. Спецназ / S.W.A.T. [01x01-02 из 15] (2017) WEBRip | OMSKBIRD

9 | 10

1.25 ГБ

В этой теме нет новых непрочитанных сообщений. Спецназ / S.W.A.T. [01x01-03 из 15] (2017) WEBRip | OMSKBIRD

0 | 0

2.47 ГБ

В этой теме нет новых непрочитанных сообщений. Спецназ / S.W.A.T. [01x01-06 из 20] (2017) WEBRip | OMSKBIRD

2 | 12

3.7 ГБ

В этой теме нет новых непрочитанных сообщений. Спецназ / S.W.A.T. [01x01 из 15] (2017) WEBRip 720p | OMSKBIRD

7 | 0

1 ГБ

В этой теме нет новых непрочитанных сообщений. Спецназ / S.W.A.T. [01x01-04 из 15] (2017) WEBRip 720p | OMSKBIRD

0 | 0

5.89 ГБ




Вы не можете начинать темы
Вы не можете отвечать на сообщения
Вы не можете редактировать свои сообщения
Вы не можете удалять свои сообщения
Вы не можете добавлять вложения

Перейти:  
Для Мосгорсуда, Роскомнадзора и рекламодателей: mosgorsud-torrent[собачка]yandex.ru
 Вход
ppkBB3cker v.2 © 2008-2014 @ PPK
[ Time : 0.035s | 19 Queries | GZIP : Off ]

cron