img image001 image001 image001 image001 image001 image001 image001 image001 image001 image001 image001 image001 image001 image001 image001

Planets Sun Sun Sun
Статистика раздачи
Автор: Nickolas3434 | Размер: 7.84 ГБ | Добавлен: 04 дек 2017
Раздают: 0    Качают: 0
Скачать торрент
Скачать торрент
Описание торрента

СообщениеДобавлено: 04 дек 2017 

Информация о фильме
Название: Смертельное Оружие
Оригинальное название: Lethal Weapon
Год выхода: 2017
Жанр: боевик, триллер, драма, криминал
Режиссер: Стив Бойум, МакДжи
В ролях: Клейн Кроуфорд, Дэймон Уайанс, Джордана Брюстер, Данте Браун, Джонатан Фернандес, Чандлер Кинни, Кевин Рам, Киша Шарп, Флориана Лима и другие.
О фильме:
Новый сериал, в основу которого лег одноименный фильм с Мэлом Гибсоном в главной роли. Сюжет построен вокруг копа из Техаса Мартине Риггсе (Клэйн Кроуфорд), беременная жена которого погибла в автокатастрофе. Страдающего от проблем с алкоголем и самоконтролем Риггса переводят в новый участок, где его напарником становится примерный семьянин Роджер Мерто (Дэймон Уайнс), недавно переживший сердечный удар и собирающийся на пенсию. По слухам, сценаристы пытались передать дух культового фильма, наделив обоих героев характерами их прототипов.

Страна: США
Продолжительность: ~ 00:44:00 серия
Перевод: Любительский (многоголосый закадровый) OmskBird
Файл
Кодек: MPEG-4 AVC/H.264
Качество: WEBRip 720p (Amazon)
Видео: ~2900 Кбит/сек, 1280x720 (1.778), 23.976 кадр/сек
Звук:
Аудио rus: AC-3, 2 ch, 48,0 КГц, 192 Кбит/сек - OmskBird
Субтитры: отсутствуют
Реклама: присутствуют аудио вставки рекламы
Семпл
Релиз-группа: OmskBird
Перевод: Николай Исаков
Роли озвучивали: Денис Строев, Семён Ващенко, Павел Ярощик, Анастасия Флигина
Звукорежиссер: Павел Квентов
Постер: Ксения Просветова
Раздача с рекламными вставками
General
Complete name : G:FilmsLethal.Weapon.S02.720p.HDTVRip.OmskBirdLethal.Weapon.S02E01.720p.HDTVRip.OmskBird.mp4
Format : MPEG-4
Format profile : Base Media
Codec ID : isom (isom)
File size : 1 014 MiB
Duration : 44mn 56s
Overall bit rate : 3 154 Kbps
Encoded date : UTC 2017-09-28 07:19:33
Tagged date : UTC 2017-09-28 07:19:33
Writing application : Yamb 2.1.0.0 [http://yamb.unite-video.com]
Video
ID : 1
Format : AVC
Format/Info : Advanced Video Codec
Format profile : [email protected]
Format settings, CABAC : Yes
Format settings, ReFrames : 3 frames
Codec ID : avc1
Codec ID/Info : Advanced Video Coding
Duration : 44mn 55s
Bit rate : 2 961 Kbps
Maximum bit rate : 6 420 Kbps
Width : 1 280 pixels
Height : 720 pixels
Display aspect ratio : 16:9
Frame rate mode : Constant
Frame rate : 23.976 (24000/1001) fps
Standard : PAL
Color space : YUV
Chroma subsampling : 4:2:0
Bit depth : 8 bits
Scan type : Progressive
Bits/(Pixel*Frame) : 0.134
Stream size : 951 MiB (94%)
Language : English
Encoded date : UTC 2017-09-28 07:09:06
Tagged date : UTC 2017-09-28 07:19:40
Color range : Limited
Color primaries : BT.709
Transfer characteristics : BT.709
Matrix coefficients : BT.709
Audio
ID : 2
Format : AC-3
Format/Info : Audio Coding 3
Mode extension : CM (complete main)
Format settings, Endianness : Big
Codec ID : ac-3
Duration : 44mn 56s
Bit rate mode : Constant
Bit rate : 192 Kbps
Channel(s) : 2 channels
Channel positions : Front: L R
Sampling rate : 48.0 KHz
Frame rate : 31.250 fps (1536 spf)
Bit depth : 16 bits
Compression mode : Lossy
Stream size : 61.7 MiB (6%)
Encoded date : UTC 2017-09-28 07:19:39
Tagged date : UTC 2017-09-28 07:19:40

Релиз от: OmskBird



   Похожие торренты   Торрент   Размер 
В этой теме нет новых непрочитанных сообщений. Смертельное оружие / Lethal Weapon [02x01-07 из 22] (2017) WEBRip 720p | OmskBird

0 | 0

6.86 ГБ

В этой теме нет новых непрочитанных сообщений. Смертельное оружие / Lethal Weapon [02x01-05 из 22] (2017) WEBRip 720p | OmskBird

5 | 5

4.9 ГБ

В этой теме нет новых непрочитанных сообщений. Смертельное оружие / Lethal Weapon [02x01-07 из 22] (2017) WEBRip 720p | OmskBird

0 | 0

8.82 ГБ

В этой теме нет новых непрочитанных сообщений. Смертельное оружие / Lethal Weapon [02x01-06 из 22] (2017) WEBRip 720p | OmskBird

0 | 0

5.89 ГБ

В этой теме нет новых непрочитанных сообщений. Смертельное оружие / Lethal Weapon [02x01-05 из 22] (2017) WEBRip | OmskBird

0 | 0

3.12 ГБ

В этой теме нет новых непрочитанных сообщений. Смертельное оружие / Lethal Weapon [02x01-07 из 22] (2017) WEBRip | OmskBird

0 | 0

4.37 ГБ

В этой теме нет новых непрочитанных сообщений. Смертельное оружие / Lethal Weapon [02x01-07 из 22] (2017) WEBRip | OmskBird

0 | 0

5.63 ГБ




Вы не можете начинать темы
Вы не можете отвечать на сообщения
Вы не можете редактировать свои сообщения
Вы не можете удалять свои сообщения
Вы не можете добавлять вложения

Перейти:  
Для Мосгорсуда, Роскомнадзора и рекламодателей: mosgorsud-torrent[собачка]yandex.ru
 Вход
ppkBB3cker v.2 © 2008-2014 @ PPK
[ Time : 0.113s | 18 Queries | GZIP : Off ]

cron