img image001 image001 image001 image001 image001 image001 image001 image001 image001 image001 image001 image001 image001 image001 image001

Planets Sun Sun Sun
Статистика раздачи
Автор: Nickolas3434 | Размер: 5 ГБ | Добавлен: 04 дек 2017
Раздают: 8    Качают: 7
Скачать торрент
Скачать торрент
Описание торрента

СообщениеДобавлено: 04 дек 2017 

Информация о фильме
Название: Смертельное Оружие
Оригинальное название: Lethal Weapon
Год выхода: 2017
Жанр: боевик, триллер, драма, криминал
Режиссер: Стив Бойум, МакДжи
В ролях: Клейн Кроуфорд, Дэймон Уайанс, Джордана Брюстер, Данте Браун, Джонатан Фернандес, Чандлер Кинни, Кевин Рам, Киша Шарп, Флориана Лима и другие.
О фильме:
Новый сериал, в основу которого лег одноименный фильм с Мэлом Гибсоном в главной роли. Сюжет построен вокруг копа из Техаса Мартине Риггсе (Клэйн Кроуфорд), беременная жена которого погибла в автокатастрофе. Страдающего от проблем с алкоголем и самоконтролем Риггса переводят в новый участок, где его напарником становится примерный семьянин Роджер Мерто (Дэймон Уайнс), недавно переживший сердечный удар и собирающийся на пенсию. По слухам, сценаристы пытались передать дух культового фильма, наделив обоих героев характерами их прототипов.

Страна: США
Продолжительность: ~ 00:44:00 серия
Перевод: Любительский (многоголосый закадровый) OmskBird
Файл
Кодек: XviD
Качество: WEBRip (Amazon)
Видео: 720x400 (1.80:1), 23.976 fps, ~1806 kbps avg
Звук:
Аудио rus: AC-3, 2 ch, 48,0 КГц, 192 Кбит/сек - OmskBird
Субтитры: отсутствуют
Реклама: присутствуют аудио вставки рекламы
Семпл
Релиз-группа: OmskBird
Перевод: Николай Исаков
Роли озвучивали: Денис Строев, Семён Ващенко, Павел Ярощик, Анастасия Флигина
Звукорежиссер: Павел Квентов
Постер: Ксения Просветова
Раздача с рекламными вставками
General
Complete name : G:FilmsLethal.Weapon.S02.HDTVRip.OmskBirdLethal.Weapon.S02E01.HDTVRip.OmskBird.avi
Format : AVI
Format/Info : Audio Video Interleave
File size : 645 MiB
Duration : 44mn 55s
Overall bit rate : 2 008 Kbps
Writing application : VirtualDubMod 1.5.10.3 (build 2550/release)
Writing library : VirtualDubMod build 2550/release
Video
ID : 0
Format : MPEG-4 Visual
Format profile : Advanced [email protected]
Format settings, BVOP : 1
Format settings, QPel : No
Format settings, GMC : No warppoints
Format settings, Matrix : Default (MPEG)
Codec ID : XVID
Codec ID/Hint : XviD
Duration : 44mn 55s
Bit rate : 1 806 Kbps
Width : 720 pixels
Height : 400 pixels
Display aspect ratio : 16:9
Frame rate : 23.976 (23976/1000) fps
Color space : YUV
Chroma subsampling : 4:2:0
Bit depth : 8 bits
Scan type : Progressive
Compression mode : Lossy
Bits/(Pixel*Frame) : 0.262
Stream size : 580 MiB (90%)
Writing library : XviD 73
Audio
ID : 1
Format : AC-3
Format/Info : Audio Coding 3
Mode extension : CM (complete main)
Format settings, Endianness : Big
Codec ID : 2000
Duration : 44mn 55s
Bit rate mode : Constant
Bit rate : 192 Kbps
Channel(s) : 2 channels
Channel positions : Front: L R
Sampling rate : 48.0 KHz
Frame rate : 31.250 fps (1536 spf)
Compression mode : Lossy
Stream size : 61.7 MiB (10%)
Alignment : Split accross interleaves
Interleave, duration : 42 ms (1.00 video frame)
Interleave, preload duration : 500 ms

Релиз от: OmskBird



   Похожие торренты   Торрент   Размер 
В этой теме нет новых непрочитанных сообщений. Смертельное оружие / Lethal Weapon [02x01-05 из 22] (2017) WEBRip | OmskBird

0 | 0

3.12 ГБ

В этой теме нет новых непрочитанных сообщений. Смертельное оружие / Lethal Weapon [02x01-07 из 22] (2017) WEBRip | OmskBird

0 | 0

5.63 ГБ

В этой теме нет новых непрочитанных сообщений. Смертельное оружие / Lethal Weapon [02x01-06 из 22] (2017) WEBRip | OmskBird

0 | 0

3.75 ГБ

В этой теме нет новых непрочитанных сообщений. Смертельное оружие / Lethal Weapon [02x01-07 из 22] (2017) WEBRip | OmskBird

0 | 0

4.37 ГБ

В этой теме нет новых непрочитанных сообщений. Смертельное оружие / Lethal Weapon [02x01-06 из 22] (2017) WEBRip 720p | OmskBird

0 | 0

5.89 ГБ

В этой теме нет новых непрочитанных сообщений. Смертельное оружие / Lethal Weapon [02x01-07 из 22] (2017) WEBRip 720p | OmskBird

0 | 0

6.86 ГБ

В этой теме нет новых непрочитанных сообщений. Смертельное оружие / Lethal Weapon [02x01-05 из 22] (2017) WEBRip 720p | OmskBird

5 | 5

4.9 ГБ




Вы не можете начинать темы
Вы не можете отвечать на сообщения
Вы не можете редактировать свои сообщения
Вы не можете удалять свои сообщения
Вы не можете добавлять вложения

Перейти:  
Для Мосгорсуда, Роскомнадзора и рекламодателей: mosgorsud-torrent[собачка]yandex.ru
 Вход
ppkBB3cker v.2 © 2008-2014 @ PPK
[ Time : 0.045s | 19 Queries | GZIP : Off ]

cron